#TITLE:Fade Away;
#SUBTITLE:;
#ARTIST:Sugar;
#TITLETRANSLIT:;
#SUBTITLETRANSLIT:;
#ARTISTTRANSLIT:;
#GENRE:;
#CREDIT:locuuraa;
#LYRICSPATH:;
#MUSIC:Fade Away.ogg;
#OFFSET:2.860;
#SAMPLESTART:11.080;
#SAMPLELENGTH:12.000;
#SELECTABLE:YES;
#BPMS:0.000=91.000;
#STOPS:;
#KEYSOUNDS:;
#BANNER:Fade Away.png;
#BACKGROUND:Fade Away.png;
#CDTITLE:../CDTitles/4DSS.png;
#BGCHANGES:-14.700=Fade Away.avi=1.000=0=0=1,
229.000=Fade Away.png=1.000=0=0=1,
99999=-nosongbg-=1.000=0=0=0
;
#NOTES:
     ds3ddx-single:
     Hard:
     Medium:
     4:
     :
00000000
00000000
00000000
00000000
,
00000000
00000000
00000000
00000000
,
00000000
00000000
00000000
00000000
,
00000000
00000000
00000000
00000000
,
00000000
01000000
00000010
00000100
,
01010000
00000000
00000010
00000010
00000010
10000011
01000010
00000000
,
00000010
00110000
00000101
00010000
,
00000000
10100000
00000000
00100101
,
10000000
00000000
00100001
00000000
10000100
00000000
10100001
00000100
,
00100000
00000100
10000001
00000000
10000001
00000000
00100000
00000000
,
00100001
00000000
01000000
00000000
00000010
00000000
00000010
00000010
,
00000100
00000000
10100000
00010000
10000000
00000000
00000001
00010000
,
00000100
00100000
10000001
00000001
,
00000001
00000001
10110000
00000000
00000000
00000000
00000000
00000000
,
00000000
00000000
00000000
00000000
,
00110000
00000000
01000000
00000000
00000010
00000000
00000010
00000010
,
00000010
00000001
10000000
00000100
,
00000100
00110100
10000000
00000001
,
00100000
00000000
00000000
00000100
,
00000011
00000000
00110000
00000000
00000100
00000000
00100000
00000100
,
00100000
00000100
00100000
00000100
,
00000000
00000011
11000000
00000011
,
00000000
00000000
00000000
00000010
,
00000000
01001000
10000010
00000011
,
00000011
11000000
01000000
00000011
,
00000010
10000101
00110000
00010100
,
00000100
00010000
00000000
00000000
00000100
00000000
00110100
00010000
,
00010000
00000100
00000100
00100001
,
00100001
00000000
10000100
00000000
00100001
00000000
00000010
00000010
,
00000010
00000000
01000001
00000000
01000001
00000000
01000000
01000000
,
10000000
10000000
10000000
10000000
,
00000000
00000000
10000010
00000000
10000010
00000000
00000010
00000010
,
00000001
00000001
00000001
00000001
,
00000010
01010000
00010000
00000010
,
00000010
00000000
01000001
00000000
00000011
00000000
00000101
00010000
,
00000000
00000000
00000001
00000000
10000000
00010000
00000000
00000000
,
00000000
10100000
00010100
00000000
00000100
00000000
10000100
00000000
,
10000100
00000000
00110000
00000100
00010100
00000010
00000000
00000000
;
#NOTES:
     ds3ddx-double:
     Club:
     Easy:
     4:
     :
0000000000000000
0000000000000000
0000000000000000
0000000000000000
,
0000000000000000
0000000000000000
0000000000000000
0000000000000000
,
0000000000000000
0000000000000000
0000000000000000
0000000000000000
,
0000000000000000
0000000000000000
0000000000000000
0000000000000000
,
0000000000000000
0100000000000000
0000001000000000
0000010000000000
,
0101000000000000
0000000000000000
0000001000000000
0000001000000000
0000001000000000
1000001100000000
0100001000000000
0000000000000000
,
0000001000000000
0011000000000000
0000010100000000
0001000000000000
,
0000000000000000
1010000000000000
0000000000000000
0000010000100000
,
0000000010000000
0000000000000000
0000000000100001
0000000000000000
0000000010000100
0000000000000000
0000000010100001
0000000000000100
,
0000000000100000
0000000000000100
0000000010000001
0000000000000000
0000000010000001
0000000000000000
0000000000100000
0000000000000000
,
0000000000100001
0000000000000000
0000000001000000
0000000000000000
0000001000000000
0000000000000000
0000001000000000
0000001000000000
,
0000010000000000
0000000000000000
1010000000000000
0001000000000000
1000000000000000
0000000000000000
0000000100000000
0001000000000000
,
0000010000000000
0010000000000000
1000000100000000
0000000100000000
,
0000000100000000
0000000100000000
1011000000000000
0000000000000000
0000000000000000
0000000000000000
0000000000000000
0000000000000000
,
0000000000000000
0000000000000000
0000000000000000
0000000000000000
,
0000000000110000
0000000000000000
0000000001000000
0000000000000000
0000000000000010
0000000000000000
0000000000000010
0000000000000010
,
0000000000000010
0000000000000001
0000000010000000
0000000000000100
,
0000000000000100
0000000000110100
0000000010000000
0000000000000001
,
0000000000100000
0000000000000000
0000000000000000
0000010000000000
,
0000001100000000
0000000000000000
0011000000000000
0000000000000000
0000010000000000
0000000000000000
0010000000000000
0000010000000000
,
0010000000000000
0000010000000000
0010000000000000
0000010000000000
,
0000000000000000
0000001100000000
1100000000000000
0000001100000000
,
0000000000000000
0000000000000000
0000000000000000
0000000000000010
,
0000000000000000
0000000001001000
0000000010000010
0000000000000011
,
0000000000000011
0000000011000000
0000000001000000
0000000000000011
,
0000000000000010
0000000010000101
0000000000110000
0001010000000000
,
0000010000000000
0001000000000000
0000000000000000
0000000000000000
0000010000000000
0000000000000000
0011010000000000
0001000000000000
,
0001000000000000
0000010000000000
0000010000000000
0010000100000000
,
0010000100000000
0000000000000000
1000010000000000
0000000000000000
0010000100000000
0000000000000000
0000001000000000
0000001000000000
,
0000001000000000
0000000000000000
0100000100000000
0000000000000000
0100000100000000
0000000000000000
0100000000000000
0100000000000000
,
1000000000000000
1000000000000000
0000000100000000
0000000000010000
,
0000000000000000
0000000000000000
0000000010000010
0000000000000000
0000000010000010
0000000000000000
0000000000000010
0000000000000010
,
0000000000000011
0000000000000001
0000000000000001
0000000000000001
,
0000000000000010
0000000001010000
0001000000000000
0000001000000000
,
0000001000000000
0000000000000000
0100000100000000
0000000000000000
0000001100000000
0000000000000000
0000010100000000
0001000000000000
,
0000000000000000
0000000000000000
0000000000010000
0000000000000000
0000000010000000
0000000000010000
0000000000000000
0000000000000000
,
0000000000000000
0000000010100000
0000000000010100
0000000000000000
0000000000000100
0000000000000000
0000000010000100
0000000000000000
,
0000000010000100
0000000000000000
0000000000110000
0000000000000100
0000000000010100
0000000000000010
0000000000000000
0000000000000000
;
