#TITLE:FUNKY TONIGHT;
#SUBTITLE:;
#ARTIST:酷龙;
#TITLETRANSLIT:;
#SUBTITLETRANSLIT:;
#ARTISTTRANSLIT:CLON;
#GENRE:;
#CREDIT:locuuraa;
#LYRICSPATH:;
#MUSIC:FUNKY TONIGHT.ogg;
#OFFSET:-0.080;
#SAMPLESTART:11.980;
#SAMPLELENGTH:12.000;
#SELECTABLE:YES;
#BPMS:0.000=105.000;
#STOPS:;
#KEYSOUNDS:;
#BANNER:FUNKY TONIGHT.png;
#BACKGROUND:FUNKY TONIGHT.png;
#CDTITLE:../CDTitles/4DSS.png;
#BGCHANGES:-14.700=FUNKY TONIGHT.avi=1.000=0=0=1,
229.000=FUNKY TONIGHT.png=1.000=0=0=1,
99999=-nosongbg-=1.000=0=0=0
;
#NOTES:
     ds3ddx-double:
     Club:
     Easy:
     4:
     :
0000000000000000
0000000000000000
0000000000000000
0000000000000000
,
0000000000000000
0000000000000000
0000000000000000
0000000000000000
,
0000000000000000
0000000000000000
0000000000000000
0000000000000000
,
0000000000000000
0000000000000000
0000000000000000
0000000000000000
,
0000000000000000
0000000000000000
0000000000000000
0000000000000000
,
0000010000000000
0000001000000000
0010000000000000
0100000000000000
,
0000010000000000
0000001000000000
0010000000000000
0100000000000000
,
0000010000000000
0000000000000000
0000010000000000
0000010000000000
,
0010000000000000
0000000000000000
0010000000000000
0010000000000000
,
0000000000100000
0000000001000000
0000000000000010
0000000001000010
,
0000000011000000
0000000001100000
0000000011000000
0000000001000010
,
0000010000000000
0000001000000000
0100000000000000
0100001000000000
,
0100001000000000
0000000000000000
0000000000000000
0000000000000000
,
0000000000100000
0000000000010000
0000010000000000
0001000000000000
,
0000000000100000
0000000001000000
0000000000000010
0000000001000010
,
0000000000000001
0000010000100000
1000000000000000
0000001001000000
,
0000010000000000
0000001000000000
0000000000100000
0000000001000000
,
0000000000100000
0000000000000010
0000010000000000
0100000000000000
,
0000001000000000
0000000000000000
0000001000000000
0000001000000000
,
0000000000100000
0000000100000000
0000010000000000
0000000010000000
,
0000000001000000
0000001000000000
0000000000100000
0000010000000000
0000000001000000
0000001000000000
0000000001000000
0000001000000000
,
0000000000100000
0000000000010000
0000010000000000
0001000000000000
,
0000001000000000
0000000000100000
0000000001000000
0000000000000010
,
0000000001000000
0000010000000000
0000001000000000
0100000000000000
,
0100001000000000
0000000000000000
0100001000000000
0000000000000000
0000001000000000
0000010000000000
0000001000000000
0000000000000000
,
0001000000000000
0000010000000000
0000000000010000
0000000000100000
,
0000000001000000
0000010000000000
0000001000000000
0100000000000000
,
0000001000000000
0000000000100000
0000000001000000
0000000000000010
,
0000000001000010
0000000000000000
0000000001000010
0000000000000000
0000000001000000
0000000000100000
0000000001000000
0000000000000000
,
0000001000000000
0000000000000000
0000010000000000
0000000000000000
0000001000000000
0100000000000000
0000001000000000
0000000000000000
,
0000000001000000
0000000000000000
0000000000100000
0000000000000000
0000000001000000
0000000000000010
0000000001000000
0000000000000000
,
0000010000000000
0001000000000000
0000000000100000
0000000000010000
,
0000000001000000
0000000000100000
0000001000000000
0000010000000000
0000000001000000
0000000000100000
0000000001000000
0000000000100000
,
0000001000000000
0000010000000000
0010000000000000
0000001000000000
,
0000000001000000
0000000000100000
0000000000000100
0000000001000000
,
0000000000000010
0000000000000001
0000000000100000
0000000000010000
0000010000000000
0000000000100000
0000001000000000
0000000001000000
,
0000001000000000
0100000000000000
0000010000000000
0000000000100000
,
0000000001000100
0000000000000000
0000000000100010
0000000000000000
0000000001000100
0000000010000001
0000000000100010
0000000000000000
,
0000000000100000
0000000000000000
0000000001000000
0000000000000000
0000010000000000
0000001000000000
0000010000000000
0000000000000000
,
0010001000000000
0000000000000000
0100010000000000
0000000000000000
0010001000000000
1000000100000000
0100010000000000
0000000000000000
,
0000010000000000
0010000000000000
0000001000000000
0000000001000000
,
0000000000100000
0000000000000010
0000010000000000
0100000000000000
,
0000000000100000
0000000000000010
0000010000000000
0100000000000000
,
0000000000100000
0000000000000010
0000010000000000
0100000000000000
,
0000010000100000
0000000000000000
0000000000000000
0000000000000000
,
0000000000000011
0000000000000000
0000000000000000
0000000000000000
;
#NOTES:
     ds3ddx-double:
     Club:
     Edit:
     1:
     :
0000000000000000
0000000000000000
0000000000000000
0000000000000000
,
0000000000000000
0000000000000000
0000000000000000
0000000000000000
,
0000000000000000
0000000000000000
0000000000000000
0000000000000000
,
0000000000000000
0000000000000000
0000000000000000
0000000000000000
,
0000000000000000
0000000000000000
0000000000000000
0000000000000000
,
0000010000000000
0000001000000000
0010000000000000
0100000000000000
,
0000010000000000
0000001000000000
0010000000000000
0100000000000000
,
0000010000000000
0000000000000000
0000010000000000
0000010000000000
,
0010000000000000
0000000000000000
0010000000000000
0010000000000000
,
0000000000100000
0000000001000000
0000000000000010
0000000001000010
,
0000000011000000
0000000001100000
0000000011000000
0000000001000010
,
0000010000000000
0000001000000000
0100000000000000
0100001000000000
,
0100001000000000
0000000000000000
0000000000000000
0000000000000000
,
0000000000100000
0000000000010000
0000010000000000
0001000000000000
,
0000000000100000
0000000001000000
0000000000000010
0000000001000010
,
0000000000000001
0000010000100000
1000000000000000
0000001001000000
,
0000010000000000
0000001000000000
0000000000100000
0000000001000000
,
0000000000100000
0000000000000010
0000010000000000
0100000000000000
,
0000001000000000
0000000000000000
0000001000000000
0000001000000000
,
0000000000100000
0000000100000000
0000010000000000
0000000010000000
,
0000000001000000
0000001000000000
0000000000100000
0000010000000000
0000000001000000
0000001000000000
0000000001000000
0000001000000000
,
0000000000100000
0000000000010000
0000010000000000
0001000000000000
,
0000001000000000
0000000000100000
0000000001000000
0000000000000010
,
0000000001000000
0000010000000000
0000001000000000
0100000000000000
,
0100001000000000
0000000000000000
0100001000000000
0000000000000000
0000001000000000
0000010000000000
0000001000000000
0000000000000000
,
0001000000000000
0000010000000000
0000000000010000
0000000000100000
,
0000000001000000
0000010000000000
0000001000000000
0100000000000000
,
0000001000000000
0000000000100000
0000000001000000
0000000000000010
,
0000000001000010
0000000000000000
0000000001000010
0000000000000000
0000000001000000
0000000000100000
0000000001000000
0000000000000000
,
0000001000000000
0000000000000000
0000010000000000
0000000000000000
0000001000000000
0100000000000000
0000001000000000
0000000000000000
,
0000000001000000
0000000000000000
0000000000100000
0000000000000000
0000000001000000
0000000000000010
0000000001000000
0000000000000000
,
0000010000000000
0001000000000000
0000000000100000
0000000000010000
,
0000000001000000
0000000000100000
0000001000000000
0000010000000000
0000000001000000
0000000000100000
0000000001000000
0000000000100000
,
0000001000000000
0000010000000000
0010000000000000
0000001000000000
,
0000000001000000
0000000000100000
0000000000000100
0000000001000000
,
0000000000000010
0000000000000001
0000000000100000
0000000000010000
0000010000000000
0000000000100000
0000001000000000
0000000001000000
,
0000001000000000
0100000000000000
0000010000000000
0000000000100000
,
0000000001000100
0000000000000000
0000000000100010
0000000000000000
0000000001000100
0000000010000001
0000000000100010
0000000000000000
,
0000000000100000
0000000000000000
0000000001000000
0000000000000000
0000010000000000
0000001000000000
0000010000000000
0000000000000000
,
0010001000000000
0000000000000000
0100010000000000
0000000000000000
0010001000000000
1000000100000000
0100010000000000
0000000000000000
,
0000010000000000
0010000000000000
0000001000000000
0000000001000000
,
0000000000100000
0000000000000010
0000010000000000
0100000000000000
,
0000000000100000
0000000000000010
0000010000000000
0100000000000000
,
0000000000100000
0000000000000010
0000010000000000
0100000000000000
,
0000010000100000
0000000000000000
0000000000000000
0000000000000000
,
0000000000000011
0000000000000000
0000000000000000
0000000000000000
;
#NOTES:
     ds3ddx-single:
     Hard:
     Medium:
     3:
     :
00000000
00000000
00000000
00000000
,
00000000
00000000
00000000
00000000
,
00000000
00000000
00000000
00000000
,
00000000
00000000
00000000
00000000
,
00000000
00000000
00000000
00000000
,
00000100
00010010
00100000
01010000
,
00000100
00010010
00100000
01010000
,
00000100
00000000
00000100
00110000
,
00000100
00000000
10000001
00000000
00000010
01000000
00010100
00000000
,
00000100
00100000
00000011
11000000
,
00000100
00010100
00000100
11000000
,
00000100
00000000
00100000
00000000
00000010
01000000
00010100
00000000
,
11000011
00000000
00000000
00000000
,
00000100
00010010
00100000
01010000
,
00000010
00000000
01000000
00000000
00000010
01000000
00000011
00000000
,
00000100
00010010
00100000
01010000
,
00000100
00000000
10000000
00000000
00000100
01000000
10000101
00000000
,
00100000
01011000
00000100
00011010
,
10000000
00000000
00000001
00000000
00000100
00100000
10000010
00000000
,
00000100
10000001
00000100
10100001
,
00000100
00100000
01000000
00000010
00000100
00100000
01001000
00000000
,
00000100
11000000
00100000
00000011
,
00000100
00000000
00000010
00000000
00000100
00000010
00000100
00000000
,
00100000
00000010
01011100
00111010
,
00000100
00000000
00100000
00000000
00000100
00100000
00000101
00000000
,
01000000
00011000
00000100
00010000
,
00100000
00001000
00000100
10100001
,
00000100
01000000
00000100
00000000
00100000
00000000
00000011
00000000
,
00000100
00000000
00000100
00000000
00110000
00000010
00100000
00000000
,
00100000
00000000
01001000
00000000
00000100
01000000
00000100
00000000
,
00000001
00000000
10000000
00000000
00100000
00000010
00100000
00000000
,
00000100
00100000
00000010
01000000
00000101
00000000
10100000
00000000
,
00000100
00000000
11000011
00000000
00100000
01000000
00110000
00000000
,
00000001
00000000
00010000
00000000
00000100
00100000
01001000
00000000
,
00000100
00000000
00100000
00000000
00000010
01000000
00000001
00000000
,
00000100
00000100
00100000
00100000
00000010
01000000
00010100
00000000
,
00100000
01011000
00000100
00011010
,
00100000
00000000
11000000
00000000
00000100
01000000
00000101
00000000
,
10000000
00000000
00000001
00000000
00010000
10000000
00000011
00000000
,
00100000
00000000
01000000
00000000
00000100
00000010
00010100
00000000
,
01000000
01000000
00000011
00000000
00000010
01000000
00010100
00000000
,
00100000
01010000
00000100
00010010
,
10000000
00000000
00000001
00000000
00100000
00000010
10100000
00000000
,
00000100
00010010
00100000
01010000
,
00000100
10100001
00000100
00000000
,
00000011
00000000
00000000
00000000
;
#NOTES:
     ds3ddx-single:
     Easy:
     Easy:
     2:
     :
00000000
00000000
00000000
00000000
,
00000000
00000000
00000000
00000000
,
00000000
00000000
00000000
00000000
,
00000000
00000000
00000000
00000000
,
00000000
00000000
00000000
00000000
,
00000100
00000000
00100000
00000000
,
00000100
00000000
00100000
00000000
,
00000100
00000000
00000100
00000000
,
00000100
00000000
00000010
00000000
,
00000000
00100000
00000000
11000000
,
00000000
00000100
00000000
01000000
,
00000000
00000000
00000000
00010000
,
00000001
00000000
00000000
00000000
,
00000100
00000010
00100000
01000000
,
00000010
00000000
00000000
00000011
,
00000000
00000010
00100000
00000000
,
00000100
00000000
10000000
00000000
00000000
01000000
00000000
00000000
,
00000000
01000000
00000100
00000000
,
10000000
00000000
00000100
00000000
,
00000100
00000000
00000100
00000001
,
00000100
01000000
00000100
01000000
,
00000100
00000000
00100000
00000011
,
00000000
00000010
00000000
00000100
,
00100000
00000010
01000000
00000010
,
00000000
00100000
00000000
00000100
,
00000000
00010000
00000000
00010000
,
00000000
00100000
00000100
00100000
,
00000000
00000100
00100000
00000011
,
00000000
00000000
00110000
00000000
,
00100000
00000000
00000100
00000000
,
00000001
10000000
00100000
00100000
,
00000100
00000010
00000000
10100000
,
00000100
00000011
00000000
00100000
,
00000000
00010000
00000000
01000000
,
00000100
00000000
00000010
00000000
,
00000100
00100000
00000000
00000100
,
00100000
00000000
00000100
00000000
,
00100000
00000000
00000100
00000101
,
10000000
00000001
00000000
00000100
,
00100000
01000000
00000100
00000000
,
01000000
00000000
00000001
00000000
00000000
01000000
00000000
00000000
,
00000000
01000000
00000100
00000000
,
10000000
00000001
00000000
10100000
,
00000000
00000010
00100000
00000000
,
00000100
00100000
00000100
00000000
,
00000011
00000000
00000000
00000000
;
