#TITLE:FUNKY LOVE;
#SUBTITLE:;
#ARTIST:Junkie;
#TITLETRANSLIT:;
#SUBTITLETRANSLIT:;
#ARTISTTRANSLIT:;
#GENRE:;
#CREDIT:locuuraa;
#LYRICSPATH:;
#MUSIC:FUNKY LOVE.ogg;
#OFFSET:-0.040;
#SAMPLESTART:12.020;
#SAMPLELENGTH:12.000;
#SELECTABLE:YES;
#BPMS:0.000=112.000;
#STOPS:;
#KEYSOUNDS:;
#BANNER:FUNKY LOVE.png;
#BACKGROUND:FUNKY LOVE.png;
#CDTITLE:../CDTitles/4DSS.png;
#BGCHANGES:-14.700=FUNKY LOVE.avi=1.000=0=0=1,
229.000=FUNKY LOVE.png=1.000=0=0=1,
99999=-nosongbg-=1.000=0=0=0
;
#NOTES:
     ds3ddx-double:
     Club:
     Easy:
     3:
     :
0000000000000000
0000000000000000
0000000000000000
0000000000000000
,
0000000000000000
0000000000000000
0000000000000000
0000000000000000
,
0000000000000000
0000000000000000
0000000000000000
0000000000000000
,
0000000000000000
0000000000000000
0000000000000000
0000000000000000
,
0000000000100000
0000000000000000
0000000000100000
0000000000000000
,
0000000000000100
0000000000000000
0000000001000000
0000000000000000
,
0000000000100000
0000010000000000
0010000000000000
0010000000000000
,
0000010000000000
0000001000000000
0000010000000000
0000010000000000
,
0000011000000000
0001000000000000
0000010000000000
0000000000100000
,
0000000000100000
0000000000000000
0000000001100000
0000000000000000
0000000000000100
0000000000000001
0000000010000000
0000000000000000
,
0000000001000010
0000000000000000
0000000001000000
0000000000000000
0000000000100000
0000000000100000
0000000000100000
0000000000000000
,
0000000000000010
0000000000000000
0000000000000010
0000000000000000
0000000000000100
0000000000000100
0000000000000100
0000000000000000
,
0000000000100000
0000000000000000
0000010000000000
0000000000000000
0000010000000000
0000001000000000
0000010000000000
0000000000000000
,
0010000000000000
0000000000000000
0000001000000000
0000000000000000
0010000000000000
0100000000000000
0010000000000000
0000000000000000
,
0000001000000000
0000001000000000
0000001000000000
0000000000000000
0000010000000000
0000001000000000
0000010000000000
0000000000000000
,
0100000000000000
0100000000000000
0100000000000000
0000000000000000
0010000000000000
0100000000000000
0010000000000000
0000000000000000
,
0010000000000000
0000000000000000
0000010000000000
0000000000000000
0010000000000000
0100000000000000
0100001000000000
0000000000000000
,
0001000000000000
0000000000000000
0001000000000000
0000000000000000
0000000100000000
0001000000000000
0000000100000000
0001000000000000
,
0000010000000000
0000000000000000
0000000000100000
0000000000100000
,
0000000001000000
0000000000100000
0000000001000000
0000000001000000
,
0000000000100000
0000000000000000
0000000000000100
0000000000000100
,
0000000000000100
0000000000000000
0000000000100000
0000000000000000
0000000000000100
0000000000000000
0000000000100000
0000000010000000
,
0000000000100000
0000000000000000
0000010000000000
0000010000000000
,
0010000000000000
0000001000000000
0010000000000000
0000000000000000
0000010000000000
0100000000000000
0000010000000000
0000000000000000
,
0010000000000000
0000010000000000
0010000000000000
0000000000000000
0000010000000000
0000000000000000
0000010000000000
0000000000000000
,
0010000000000000
0000000000000000
0000010000000000
0000001000000000
0000010000000000
0000001000000000
0000010000000000
0000000100000000
,
0000000000000000
0000000000000000
0000000000000000
0001000000000000
0000000000000000
0000000000000000
0000000100000000
0000000100000000
,
0000000100000000
0000000000000000
0000000000100000
0000000000000000
0000000001000000
0000000000000000
0000000010000000
0000000010000000
,
0000000010000000
0000000000000100
0000000000000100
0000000000000100
,
0000000000010000
0000000000000100
0000000000000100
0000000000000100
,
0000000010000001
0000000000100000
0000010000000000
0010000000000000
,
0000000100000000
1000000000000000
0000010000000000
0000000000000000
0001000000000000
0000000000000000
0000010000000000
0000000000000000
,
0010000000000000
0100000000000000
0010000000000000
0000000000000000
0010000000000000
0000000000000000
0010000000000000
0000000000000000
,
0000010000000000
0000000000000000
0000000000000000
0000000000000000
0011000000000000
0001010000000000
0000000000000000
1100000000000000
,
0000001100000000
0000000000000000
0000000000000000
0000000000000000
;
#NOTES:
     ds3ddx-single:
     Hard:
     Medium:
     2:
     :
00000000
00000000
00000000
00000000
,
00000000
00000000
00000000
00000000
,
00000000
00000000
00000000
00000000
,
00000000
00000000
00000000
00000000
,
00100000
00000000
00100000
00000000
,
00000100
00000000
00000100
00000000
,
00100000
01000000
00100000
00100000
,
00000100
00000010
00000100
00000100
,
00000110
00010000
00000100
00000100
,
00100000
00000000
01100000
00000000
00100000
00000001
10000000
00000000
,
00100100
00000000
00100000
00000000
00000100
00000100
00000100
00000000
,
00000100
00000000
00000100
00000000
00100000
00100000
00100000
00000000
,
00000100
00000000
01000000
00000000
00000100
00000010
00000100
00000000
,
00100000
00000000
00000010
00000000
00100000
01000000
00100000
00000000
,
00000010
00000010
00000010
00000000
00000100
00000010
00000100
00000000
,
01000000
01000000
01000000
00000000
00100000
01000000
00100000
00000000
,
00100000
00000000
00000100
00000000
00100000
01000000
01000010
00000000
,
00010000
00000000
00010000
00000000
00000001
00010000
00000001
00010000
,
00000100
00000000
00000100
00000100
,
01000000
00100000
01000000
01000000
,
00100000
00000000
00100000
00100000
,
00000100
00000000
00100000
00000000
00000100
00000000
00100000
00000001
,
00100000
00000000
00000100
00000100
,
00100000
00000010
00100000
00000000
00000100
01000000
00000100
00000000
,
00100000
00000100
00100000
00000000
00000100
00000000
00000100
00000000
,
00100000
00000000
00000100
00000010
00000100
00000010
00000100
00000001
,
00000000
00000000
00000000
00010000
00000000
00000000
00000001
00000001
,
00000001
00000000
00100000
00000000
00000100
00000000
10000000
10000000
,
10000000
00100000
00100000
00100000
,
00010000
00000100
00000100
00000100
,
10000001
00100000
00010000
00100000
,
00000001
10000000
00000100
00000000
00010000
00000000
00000100
00000000
,
00100000
01000000
00100000
00000000
00100000
00000000
00100000
00000000
,
00000100
00000000
00000000
00000000
00110000
00010100
00000000
00100001
,
10100100
00000000
00000000
00000000
;
#NOTES:
     ds3ddx-single:
     Easy:
     Easy:
     3:
     :
00000000
00000000
00000000
00000000
,
00000000
00000000
00000000
00000000
,
00000000
00000000
00000000
00000000
,
00000000
00000000
00000000
00000000
,
00100000
00000000
00100000
00000000
,
00000100
00000000
00000100
00000000
,
00100000
01000000
00000000
00100000
,
00000100
00000010
00000000
00000100
,
00000010
00010000
00000100
00000100
,
00100000
01000000
00100000
10000001
,
00100100
00000000
00000000
00000000
00000100
00100000
00000100
00000000
,
00000100
00000000
00100000
00000100
,
00000100
01000000
00000100
01000000
,
00000100
00000011
00100000
00000010
,
11000000
00000000
00000101
00000000
,
01000000
01000000
00000010
01000010
,
00100000
00000000
00000100
01000000
,
00010000
00010000
00000001
10000000
,
00010000
00000000
00000100
00000100
,
01000000
00000000
01000000
01000000
,
00100000
00000000
00100000
00000010
,
00100000
00000000
00100000
00000000
00000100
00000000
00000010
01000000
,
00000011
00000000
00000100
00000000
,
00100000
00000000
00000100
01000000
,
00100000
00100100
00000100
00000100
,
10100000
00000000
00000100
00100000
,
00000101
00000000
10000000
00000010
,
00000000
00100000
00000100
01000000
,
01000000
00000100
00000100
00100000
,
00010000
00000100
00000100
01000000
,
10000001
00100000
00010000
00100000
,
00000001
10000000
00000100
00000000
00010000
00000000
00000100
00000000
,
00100000
01000000
00100000
00100000
,
00000100
00000000
00000000
00000000
00110000
00000000
00000101
00100000
,
10100101
00000000
00000000
00000000
;
