#TITLE:E08 ~ THE LOURMEY;
#SUBTITLE:;
#ARTIST:Junkfood Junkies;
#TITLETRANSLIT:;
#SUBTITLETRANSLIT:;
#ARTISTTRANSLIT:;
#GENRE:;
#CREDIT:locuuraa;
#LYRICSPATH:;
#MUSIC:E08 ~ THE LOURMEY.ogg;
#OFFSET:-0.200;
#SAMPLESTART:12.000;
#SAMPLELENGTH:12.000;
#SELECTABLE:YES;
#BPMS:0.000=138.000;
#STOPS:;
#KEYSOUNDS:;
#BANNER:E08 ~ THE LOURMEY.png;
#BACKGROUND:E08 ~ THE LOURMEY.png;
#CDTITLE:../CDTitles/4DSS.png;
#BGCHANGES:-14.700=E08 ~ THE LOURMEY.avi=1.000=0=0=1,
229.000=E08 ~ THE LOURMEY.png=1.000=0=0=1,
99999=-nosongbg-=1.000=0=0=0
;
#NOTES:
     ds3ddx-double:
     Club:
     Easy:
     6:
     :
0000000000000000
0000001000000000
0000001000000000
0000001000000000
,
0100000000000000
0000001000000000
1100000000000000
0000000000000000
0100000000000000
0000000000000000
0100000000000000
0000000000000000
,
0000010000000000
0010000000000000
0000001000000000
0000000000000000
0000000000100000
0000000000000000
0000000000100000
0000000000000000
,
0000000000000010
0000000001000000
0000000000000100
0000000000000000
0000000000000100
0000000000000000
0000000001000000
0000000000100000
,
0000010000000000
0000001000000000
0100000000000000
0000010000000000
0010000000000000
0000010000000000
0010000000000000
0000010000000000
,
0100000000000000
0000001000000000
0100000000000000
0000001000000000
0010000000000000
0100000000000000
0010000000000000
0100000000000000
,
0000010000000000
0000001000000000
0000010000000000
0000001000000000
0000010000000000
0000000000100000
0000010000000000
0000000000100000
,
0000000001000000
0000000000000010
0000000001000000
0000000000000010
0000000001000000
0000000000000100
0000000000100000
0000000000000010
,
0000000001000000
0000000000000100
0000000001000000
0000000000100000
0000000001000000
0000010000000000
0000001000000000
0010000000000000
,
0000010000000000
0100000000000000
0000001000000000
0100000000000000
0000001000000000
0100000000000000
0000010000000000
0010000000000000
,
0000001000000000
0100000000000000
0000001000000000
0100000000000000
0000001000000000
0100000000000000
0000010000000000
0010000000000000
,
0000001000000000
0100000000000000
0010000000000000
0000001000000000
0010000000000000
0000001000000000
0010000000000000
0000001000000000
,
0000010000000000
0000000000100000
0000001000000000
0000000001000000
0000010000000000
0000000000100000
0000010000000000
0000000000100000
,
0000001000000000
0000000000100000
0000010000000000
0000000001000000
0000000000100000
0000000000000010
0000000001000000
0000000000000100
,
0000000000100000
0000000000000100
0000000000000010
0000000001000000
0000000000100000
0000010000000000
0000000001000000
0000001000000000
,
0000000001000000
0000000000000000
0000001000000000
0000000000000000
0010000000000000
0000000000000000
0000010000000000
0000000000000000
0010000000000000
0000000000000000
0100000000000000
0000000000000000
0000010000000000
0000000000000000
0000000000000000
0000010000000000
,
0010000000000000
0000010000000000
0010000000000000
0000010000000000
0000000000000000
0000001000000000
0000000000000000
0000000000000000
0100000000000000
0000000000000000
0000001000000000
0000000000000000
0100000000000000
0000000000000000
0000001000000000
0000000000000000
,
0010000000000000
0100000000000000
0010000000000000
0100000000000000
0010000000000000
0100000000000000
0000010000000000
0000001000000000
,
0100000000000000
0010000000000000
0100000000000000
0000001000000000
0000010000000000
0000001000000000
0100000000000000
0010000000000000
,
0100000000000000
0000001000000000
0010000000000000
0000001000000000
0000010000000000
0100000000000000
0000010000000000
0000001000000000
,
0000010000000000
0000001000000000
0000000000100000
0000000001000000
0000000000100000
0000000001000100
0000000000000010
0000000000000100
,
0000000000000010
0000000001000000
0000000000000010
0000000001000000
0000000000100000
0000010000000000
0000001000000000
0100000000000000
,
0000010000000000
0010000000000000
0000001000000000
0100000000000000
0000001000000000
0000010000000000
0000000000100000
0000000001000000
,
0000000000100000
0000000001000000
0000010000000000
0000001000000000
0100000000000000
0000001000000000
0100000000000000
0000001000000000
,
0100000000000000
0100001000000000
0000000000000000
0000000000000000
0100010000000000
0000000000000000
0010001000000000
0000000000000000
,
0010010000000000
0100001000000000
0000011000000000
0110000000000000
,
0100010000000000
0010001000000000
0100010000000000
0000000000000000
0010010000000000
0000000000000000
0110000000000000
0000000000000000
,
0010010000000000
0000011000000000
0010001000000000
0100010000000000
,
0010001000000000
0100010000000000
0010001000000000
0000000000000000
0010000000000000
0000010000000000
0010000000000000
0000010000000000
,
0100000000000000
0000001000000000
0100000000000000
0000001000000000
0010000000000000
0100000000000000
0010000000000000
0100000000000000
,
0000010000000000
0000001000000000
0000010000000000
0000001000000000
0000010000000000
0000000001000000
0000010000000000
0000000001000000
,
0000000000100000
0000010000000000
0000001000000000
0100000000000000
0000010000000000
0010000000000000
0000010000000000
0010000000000000
,
0100000000000000
0000001000000000
0100000000000000
0000001000000000
0000010000000000
0000001000000000
0100000000000000
0010000000000000
,
0100000000000000
0000001000000000
0000010000000000
0000000000100000
0000000001000000
0000000000000010
0000000000000100
0000000000000010
,
0000000000000100
0000000000000010
0000000001000000
0000000000000100
0000000001000000
0000000000100000
0000001000000000
0000010000000000
,
0000000001000000
0000010000000000
0000000000100000
0000010000000000
0000001000000000
0000000000000000
0000010000000000
0000000000100000
,
0000001000000000
0000000001000000
0000010000000000
0000000000100000
0000010000000000
0000000000100000
0000000001000000
0000000000000010
,
0000000001000000
0000000000000100
0000000001000000
0000000000000010
0000000001000000
0000000000000100
0000000001000000
0000000000100000
,
0000000001000000
0000010000000000
0000001000000000
0010000000000000
0000010000000000
0100000000000000
0000001000000000
0010000000000000
,
0100000000000000
0010000000000000
0100000000000000
0010000000000000
0000010000000000
0010000000000000
0000010000000000
0000001000000000
,
0000000000100000
0000001000000000
0000000000100000
0000010000000000
0000000001000000
0000010000000000
0000000001000000
0000001000000000
,
0000000000100000
0000010000000000
0000000001000000
0000001000000000
0000000000100000
0000010000000000
0000000000100000
0000010000000000
,
0000000000100000
0000001000000000
0000010000000000
0010000000000000
0000001000000000
0100000000000000
0000010000000000
0010000000000000
,
0000010000000000
0010000000000000
0100000000000000
0000001000000000
0010000000000000
0000010000000000
0100000000000000
0000001000000000
,
0010000000000000
0000010000000000
0010000000000000
0100000000000000
0000010000000000
0000001000000000
0000000000100000
0000000001000000
,
0000000000000100
0000000000000010
0000000000000100
0000000000000010
0000000000100000
0000000001000000
0000010000000000
0000001000000000
,
0010000000000000
0100000000000000
0000001000000000
0100000000000000
0000010000000000
0000000000100000
0000010000000000
0000000001000000
,
0000000000100000
0000001000000000
0000000000100000
0000001000000000
0000010000000000
0000000000100000
0000010000000000
0000000000100000
,
0000010000000000
0000000000100000
0000001000000000
0000000001000000
0000001000000000
0000000001000000
0010000000000000
0000010000000000
,
0000001000000000
0000000001000000
0000000000100000
0000000000000100
0000000000000010
0000000000000100
0000000001000000
0000000000000100
,
0000000000100000
0000000000000010
0000000001000000
0000000000100000
0000010000000000
0000001000000000
0100000000000000
0000010000000000
,
0010000000000000
0000001000000000
0010000000000000
0000010000000000
0010000000000000
0000010000000000
0010000000000000
0000010000000000
,
0100000000000000
0000001000000000
0100001000000000
0000000000000000
0000011000000000
0000000000000000
0110000000000000
0000000000000000
,
0100001000000000
0000011000000000
0110000000000000
0100010000000000
,
0010001000000000
0000000000000000
0100010000000000
0000000000000000
0010001000000000
0000000000000000
0010000000000000
0100000000000000
,
0000010000000000
0000001000000000
0010000000000000
0100000000000000
0010000000000000
0100000000000000
0000010000000000
0000001000000000
,
0100000000000000
0000001000000000
0010000000000000
0000001001000000
0000000000000000
0000000000000000
0000000000000000
0000000000000000
;
#NOTES:
     ds3ddx-single:
     Hard:
     Medium:
     6:
     :
00000000
00000010
00000010
00000010
,
01000000
00000010
11000000
00000000
01000000
00000000
01000000
00000000
,
00000101
00100000
00000011
00000000
00100000
00000000
00100000
00000000
,
00010100
00100000
00000100
00100000
00000100
00000000
00000100
00000000
,
00000100
10100000
00000100
00000000
00100000
00000100
00100000
00000100
,
01000000
00000010
01000000
00000010
00100000
01000000
00100000
01000000
,
00000100
00000010
00000100
00000010
01000000
00000010
01000000
00000010
,
00100000
00000100
00100000
00000100
01000000
00000100
01000000
00000100
,
00100000
00000010
00100000
00000010
00000100
01000000
00000100
01000000
,
00100000
00000100
01000000
00000010
00000010
01000000
00000100
00100000
,
00000100
00000010
00000100
00000010
00000100
00000010
00100000
01000000
,
00100000
01000000
00100000
01000000
11000100
00000010
11000000
00000010
,
01000000
00000100
00100000
00000010
01000000
00100000
01000000
00000010
,
00000100
00000010
01000000
00100000
01000000
00000010
00000100
00000010
,
01000000
00100000
00000100
00100000
00000100
10100000
00000011
01000000
,
00000100
00000000
00100000
00000000
00010000
00000000
01000000
00000000
00000010
00000000
01000000
00000000
00000010
00000000
00100000
00000100
,
00100000
00000100
00100000
00000100
00000000
00000010
00000000
00000000
01000000
00000000
00000010
00000000
01000000
00000000
00000010
00000000
,
00100000
01000000
00100000
01000000
00100000
01000000
00000100
00000010
,
01000000
00100000
01000000
00000010
00000100
00000010
01000000
00100000
,
01000000
00000010
00100000
00000010
00000100
01000000
00000100
00000010
,
00000100
00000010
00000100
00000010
10100000
00000010
00100000
00000010
,
00100000
00000100
00100000
00000100
01000000
00000010
00100000
00000100
,
01000000
00000010
00100000
00000101
01000000
00000010
00000100
00000010
,
01000000
00000010
00100000
00000100
01000000
00000000
10010001
00000000
,
00000010
11000011
00000000
00000000
01000101
00000000
10100010
00000000
,
00110100
01000010
00010110
01110000
,
01000100
00100010
01000100
00000000
00110100
00000000
11100000
00000000
,
00110100
00000111
10100010
01000101
,
00100010
01000100
10100011
00000000
00100000
00000100
00100000
00000100
,
01000000
00000010
01000000
00000010
00100000
01000000
00100000
01000000
,
00000100
00000010
00000100
00000010
11000000
00000011
00100000
00010100
,
01000000
00000000
00000011
00000000
00100000
00000000
00000100
00000000
00100000
00000000
00000100
00000000
00000000
11000000
00000011
00000000
,
11000011
00000000
00100000
01000000
00000100
00000010
01000000
00000010
,
01000000
00000010
00100000
01000000
00100000
01000000
00100000
01000000
,
00000100
00000010
00000100
00000010
00000100
00000010
11000000
00000101
,
00100000
00000010
11000000
00000010
00000100
00000010
00000100
00000010
,
00000100
10100000
00000100
01000000
00000010
00000100
00000010
01000000
,
00100000
00000100
00000010
00000100
00000010
00000100
00000010
01000000
,
00100000
01000000
00100000
01000000
00100000
00000101
10100000
00000010
,
00100000
00000010
00100000
00000100
00000010
01000000
00000101
00100000
,
01000000
00000010
00000100
00000010
10100000
00000100
01000000
00000100
,
00000010
00000100
00000010
00000100
00000010
10100000
00000010
00100000
,
00000010
00100000
01000000
00100000
01000000
00100000
01000000
00010100
,
01000000
00000100
01000000
00000010
01000000
00010100
00100000
00000010
,
01000000
00000101
00100000
00000100
00000010
00000100
00000010
00000100
,
00000010
00000100
00000010
00000100
00000010
00100000
01000000
00000010
,
01000000
00000100
00100000
00000100
00100000
00100000
01000000
00100000
,
01000000
00100000
01000000
00000010
11000000
00000010
00010100
01000000
,
00000010
01000000
00000100
00000010
00100000
01000000
00000100
00000010
,
10100000
00000010
00000100
01000000
00000100
01000000
00000100
00100000
,
00000011
00100000
01000000
00100000
01000000
00100000
01000000
00000011
,
11000000
00000010
00100000
00000100
00100000
00000100
00100000
00000100
,
01000000
00000010
11000011
00000000
00000111
00000000
01110000
00000000
,
11000011
00000000
10100011
11000101
10100011
00000000
11100000
00000000
,
11000101
10100011
11000101
00000000
00100000
00000100
00100000
01000000
,
00000100
00000010
00100000
01000000
00100000
01000000
00000100
00000010
,
01000000
00000010
00100000
10010111
00000000
00000000
00000000
00000000
;
