#TITLE:Don't Push Me;
#SUBTITLE:;
#ARTIST:Sweetbox;
#TITLETRANSLIT:;
#SUBTITLETRANSLIT:;
#ARTISTTRANSLIT:;
#GENRE:;
#CREDIT:locuuraa;
#LYRICSPATH:;
#MUSIC:Don't Push Me.ogg;
#OFFSET:0.660;
#SAMPLESTART:12.000;
#SAMPLELENGTH:12.000;
#SELECTABLE:YES;
#BPMS:0.000=110.000;
#STOPS:;
#KEYSOUNDS:;
#BANNER:Don't Push Me.png;
#BACKGROUND:Don't Push Me.png;
#CDTITLE:../CDTitles/4DSS.png;
#BGCHANGES:-14.700=Don't Push Me.avi=1.000=0=0=1,
229.000=Don't Push Me.png=1.000=0=0=1,
99999=-nosongbg-=1.000=0=0=0
;
#NOTES:
     ds3ddx-single:
     Hard:
     Medium:
     5:
     :
00000000
00000000
00000000
00000000
,
00000000
00000000
00000000
00000000
,
00000000
00000000
00000000
00000000
,
00000000
00000000
00000000
00000000
,
00000000
00000000
00000000
01000000
,
00000100
00100000
00000100
01000000
,
01000000
00000100
00000100
01000000
,
00110000
00000100
00010010
01000000
,
00100000
00000000
00000100
00000000
00000010
10000000
00000100
00000000
,
00100000
00100000
00000101
01000000
,
00110000
00100000
10000100
00000100
,
00100000
00000100
00010100
00100000
,
01000000
00000000
00000010
00000000
00000100
00000100
00010000
00000000
,
10100100
00000000
00000100
00000000
00000011
10000000
00000001
00000000
,
11000010
00000000
00100000
00000000
00000101
10000000
00000001
00000000
,
00100000
10100000
00000100
00010100
,
10100000
00000000
00110000
00000000
00000011
10000000
00010000
00000000
,
01000011
00000000
01000000
00000000
10100000
00000001
10000000
00000000
,
00100101
00000000
00000100
00000000
11000000
00000001
10000000
00000000
,
00000100
00000000
00100000
00000000
00000010
00000000
10000000
00000001
,
10000000
00000001
00010000
00001000
00010000
00001000
00100000
00000000
,
00000100
00000100
00100000
01000000
,
00000010
00000010
01000000
01000000
,
00000100
00100000
00000100
01000000
,
01000000
00000100
00000100
01000000
,
00110000
00000100
00010010
01000000
,
00100000
00000000
00000100
00000000
00000010
10000000
00000100
00000000
,
00100000
00100000
00000101
01000000
,
00110000
00100000
10000100
00000100
,
00100000
00000100
00010100
00100000
,
01000000
00000000
00000010
00000000
00000100
00000100
00010000
00000000
,
10100100
00000000
00000100
00000000
00000011
10000000
00000001
00000000
,
11000010
00000000
00100000
00000000
00000101
10000000
00000001
00000000
,
00100000
10100000
00000100
00010100
,
10100000
00000000
00110000
00000000
00000011
10000000
00010000
00000000
,
01000011
00000000
01000000
00000000
10100000
00000001
10000000
00000000
,
00100101
00000000
00000100
00000000
11000000
00000001
10000000
00000000
,
00000100
00000000
00100000
00000000
00000010
00000000
10000000
00000001
,
10000000
00000001
00010000
00001000
00010000
00001000
00000000
00000000
,
00110100
00000000
01000000
00000000
00000011
10000000
00000001
00000000
,
01001010
00000000
00000100
00000000
10100000
00000001
10000000
00000000
,
00000100
00000000
00000010
00000000
01000000
00000000
10000000
00000001
,
10000000
00000001
00010000
00001000
00010000
00001000
00000000
00000000
,
00010110
00000000
00000010
00000000
11000000
00000001
10000000
00000000
,
01101000
00000000
01000000
00000000
00000011
10000000
00000001
00000000
,
00000100
00000000
00100000
00000000
00000100
00000000
10000000
00000001
,
10000000
00000001
00100000
00000100
00000010
01000000
00000000
00000000
;
#NOTES:
     ds3ddx-double:
     Club:
     Easy:
     5:
     :
0000000000000000
0000000000000000
0000000000000000
0000000000000000
,
0000000000000000
0000000000000000
0000000000000000
0000000000000000
,
0000000000000000
0000000000000000
0000000000000000
0000000000000000
,
0000000000000000
0000000000000000
0000000000000000
0000000000000000
,
0000000000000000
0000000000000000
0000000000000000
0100000000000000
,
0000010000000000
0010000000000000
0000010000000000
0100000000000000
,
0100000000000000
0000010000000000
0000010000000000
0100000000000000
,
0011000000000000
0000010000000000
0001001000000000
0000000001000000
,
0000000000100000
0000000000000000
0000000000000100
0000000000000000
0000000000000010
0000000010000000
0000000000000100
0000000000000000
,
0000000000100000
0000000000100000
0000000000000101
0000000001000000
,
0000000000110000
0000000000100000
0000000010000100
0000000000000100
,
0000000000100000
0000000000000100
0000000000010100
0000000000100000
,
0000000001000000
0000000000000000
0000001000000000
0000000000000000
0000010000000000
0000010000000000
0001000000000000
0000000000000000
,
1010010000000000
0000000000000000
0000010000000000
0000000000000000
0000001100000000
1000000000000000
0000000100000000
0000000000000000
,
1100001000000000
0000000000000000
0010000000000000
0000000000000000
0000010100000000
1000000000000000
0000000100000000
0000000000000000
,
0010000000000000
1010000000000000
0000010000000000
0001010000000000
,
1010000000000000
0000000000000000
0011000000000000
0000000000000000
0000001100000000
1000000000000000
0001000000000000
0000000000000000
,
0000000001000000
0000000000000000
0000000001000000
0000000000000000
0000000010100000
0000000000000001
0000000010000000
0000000000000000
,
0000000000100101
0000000000000000
0000000000000100
0000000000000000
0000000011000000
0000000000000001
0000000010000000
0000000000000000
,
0000000000000100
0000000000000000
0000000000100000
0000000000000000
0000000000000010
0000000000000000
0000000010000000
0000000000000001
,
0000000010000000
0000000000000001
0000000000010000
0000000000001000
0000000000010000
0000000000001000
0000000000100000
0000000000000000
,
0000000000000100
0000000000000100
0000000000100000
0000000001000000
,
0000001000000000
0000001000000000
0100000000000000
0100000000000000
,
0000010000000000
0010000000000000
0000010000000000
0000001000000000
,
0000001000000000
0000000000100000
0000000000100000
0000000001000000
,
0000000000110000
0000000000000100
0000000000010010
0000000001000000
,
0000000000100000
0000000000000000
0000000000000100
0000000000000000
0000000000000010
0000000010000000
0000000000000100
0000000000000000
,
0000000000100000
0000000000100000
0000000000000101
0000000001000000
,
0000000000110000
0000000000100000
0000000010000100
0000000000100000
,
0000010000000000
0000010000000000
0001010000000000
0010000000000000
,
0100000000000000
0000000000000000
0000001000000000
0000000000000000
0000010000000000
0000010000000000
0001000000000000
0000000000000000
,
1010010000000000
0000000000000000
0000010000000000
0000000000000000
0000001100000000
1000000000000000
0000000100000000
0000000000000000
,
1100001000000000
0000000000000000
0010000000000000
0000000000000000
0000010100000000
1000000000000000
0000000100000000
0000000000000000
,
0010000000000000
1010000000000000
0000010000000000
0001010000000000
,
1010000000000000
0000000000000000
0011000000000000
0000000000000000
0000001100000000
1000000000000000
0001000000000000
0000000000000000
,
0100001100000000
0000000000000000
0100000000000000
0000000000000000
1010000000000000
0000000100000000
1000000000000000
0000000000000000
,
0010010100000000
0000000000000000
0000010000000000
0000000000000000
1100000000000000
0000000100000000
1000000000000000
0000000000000000
,
0000010000000000
0000000000000000
0000000000100000
0000000000000000
0000000000000010
0000000000000000
0000000010000000
0000000000000001
,
0000000010000000
0000000000000001
0000000000010000
0000000000001000
0000000000010000
0000000000001000
0000000000000000
0000000000000000
,
0000000000110100
0000000000000000
0000000001000000
0000000000000000
0000000000000011
0000000010000000
0000000000000001
0000000000000000
,
0000000001001010
0000000000000000
0000000000000100
0000000000000000
0000000010100000
0000000000000001
0000000010000000
0000000000000000
,
0000000000000100
0000000000000000
0000000000000010
0000000000000000
0000000001000000
0000000000000000
0000000010000000
0000000000000001
,
0000000010000000
0000000000000001
0000000000010000
0000000000001000
0000000000010000
0000000000001000
0000000000000000
0000000000000000
,
0000000001110000
0000000000000000
0000001000000000
0000000000000000
1100000000000000
0000000100000000
1000000000000000
0000000000000000
,
0110100000000000
0000000000000000
0100000000000000
0000000000000000
0000001100000000
1000000000000000
0000000100000000
0000000000000000
,
0000010000000000
0000000000000000
0010000000000000
0000000000000000
0000010000000000
0000000000000000
1000000000000000
0000000100000000
,
1000000000000000
0000000100000000
0010000000000000
0000010000000000
0000001000000000
0100000000000000
0000000000000000
0000000000000000
;
