#TITLE:Diamond;
#SUBTITLE:;
#ARTIST:DANA;
#TITLETRANSLIT:;
#SUBTITLETRANSLIT:;
#ARTISTTRANSLIT:;
#GENRE:;
#CREDIT:locuuraa;
#LYRICSPATH:;
#MUSIC:Diamond.ogg;
#OFFSET:0.640;
#SAMPLESTART:11.600;
#SAMPLELENGTH:12.000;
#SELECTABLE:YES;
#BPMS:0.000=106.000;
#STOPS:;
#KEYSOUNDS:;
#BANNER:Diamond.png;
#BACKGROUND:Diamond.png;
#CDTITLE:../CDTitles/4DSS.png;
#BGCHANGES:-14.700=Diamond.avi=1.000=0=0=1,
229.000=Diamond.png=1.000=0=0=1,
99999=-nosongbg-=1.000=0=0=0
;
#NOTES:
     ds3ddx-single:
     Hard:
     Medium:
     4:
     :
00000000
00000000
00000000
00000000
,
00000000
00000000
00000000
00000000
,
00000000
00000000
00000000
00000000
,
00000000
00000000
00000000
00000000
00000100
01000000
00000010
00000000
,
01000000
01000000
01000100
00000000
00000100
01000000
00000010
00000000
,
00100000
10100001
00000010
00000010
,
01000000
00000000
01000000
00000000
00000010
00000100
00000010
00000000
,
00000010
01000000
00000010
00000000
00100000
00000010
01000000
00000000
,
00000010
00000010
00100010
00000000
00100000
00000010
01000000
00000000
,
00000100
10000101
01000000
01000000
,
00000010
00000000
00000010
00000000
01000000
00100000
01000000
00000000
,
01000000
00000010
01000000
00000010
00010100
00000000
00000000
00000000
,
00000100
00000000
00000000
00000000
00100000
01000000
00100000
00000100
,
00000010
01100000
00000001
10000000
,
00000100
00100000
00000100
00000000
00100000
00000000
01000000
00000000
,
00000100
00000010
01000000
00000010
,
01000000
00000010
01000000
00000000
10000101
00000000
00000000
00000000
,
01000000
00000000
00000100
00000100
,
00100000
00000010
01000000
00000000
00000010
00000000
00000000
00000000
,
01000000
00100000
00000100
00000010
01000000
00000000
00000100
00000000
,
00010010
01000000
00000100
00000000
01000000
01000000
00100010
00000000
,
00000000
00000010
01000000
00000010
01000000
00000000
00100000
00000000
,
01010000
00000010
00100000
00000000
00000010
00000001
01000000
10000000
,
00000100
00010000
00000100
00010000
00100000
00000000
00000000
00000000
,
00000001
10000000
00000001
00000000
00100000
00000000
01000000
00000000
,
00000100
00000010
01000000
00000010
,
01000000
01000000
00000100
00100000
,
00000100
00100000
00000100
00000000
00100000
00000000
01011000
00000000
,
00000100
00000000
00011010
00000000
00000100
00000010
00000100
00000000
,
00100000
01000000
00100000
00000000
00000100
00000000
00000010
00000000
,
00100000
00000000
01000000
00000000
00000100
00000100
00100000
00000010
,
01000000
00000000
00000000
00000000
00000100
01000000
00000010
00000000
,
01000000
01000000
01000100
00000000
00000100
01000000
00000010
00000000
,
00100000
10100001
00000100
00000010
,
00100000
00000000
01000000
00000000
00000010
00000100
00000010
00000000
,
00000010
01000000
00000010
00000000
00100000
00000010
01000000
00000000
,
00000010
00000010
00100010
00000000
00100000
00000010
01000000
00000000
,
00000100
10000101
00100000
01000000
,
00000100
00000000
00000010
00000000
01000000
00100000
01000000
00000000
,
01000000
00000010
01000000
00000010
00110000
00000000
00000000
00000000
,
00000100
00100000
00000100
00000000
00100100
00000000
00000000
00000000
,
00100000
00000010
01000000
00000100
00100010
00000000
00000000
00000000
;
#NOTES:
     ds3ddx-double:
     Club:
     Easy:
     4:
     :
0000000000000000
0000000000000000
0000000000000000
0000000000000000
,
0000000000000000
0000000000000000
0000000000000000
0000000000000000
,
0000000000000000
0000000000000000
0000000000000000
0000000000000000
,
0000000000000000
0000000000000000
0000000000000000
0000000000000000
0000000000000100
0000000001000000
0000000000000010
0000000000000000
,
0000000001000000
0000000001000000
0000000001000100
0000000000000000
0000000000000100
0000000001000000
0000000000000010
0000000000000000
,
0000000000100000
0000000010100001
0000000000000010
0000000000000010
,
0000000001000000
0000000000000000
0000000001000000
0000000000000000
0000001000000000
0000000001000000
0000001000000000
0000000000000000
,
0100000000000000
0000001000000000
0100000000000000
0000000000000000
0010000000000000
0000001000000000
0100000000000000
0000000000000000
,
0000001000000000
0000001000000000
0010001000000000
0000000000000000
0010000000000000
0000001000000000
0100000000000000
0000000000000000
,
0000010000000000
1000010100000000
0100000000000000
0100000000000000
,
0000001000000000
0000000000000000
0000001000000000
0000000000000000
0000000001000000
0000001000000000
0000000001000000
0000000000000000
,
0000000000000010
0000000001000000
0000000000000010
0000000001000000
0000000000010100
0000000000000000
0000000000000000
0000000000000000
,
0000000000000100
0000000000000000
0000000000000000
0000000000000000
0000000000100000
0000000001000000
0000000000100000
0000000000000100
,
0000000000000010
0000000001100000
0000000000010000
0001000000000000
,
0000000000100000
0000010000000000
0000000000100000
0000000000000000
0000010000000000
0000000000000000
0000001000000000
0000000000000000
,
0000000000100000
0000000001000000
0000010000000000
0000001000000000
,
0100000000000000
0000001000000000
0100000000000000
0000000000000000
1000010100000000
0000000000000000
0000000000000000
0000000000000000
,
0100000000000000
0000000000000000
0000010000000000
0000010000000000
,
0010000000000000
0000001000000000
0100000000000000
0000000000000000
0000001000000000
0000000000000000
0000000000000000
0000000000000000
,
0100000000000000
0010000000000000
0000010000000000
0000001000000000
0100000000000000
0000000000000000
0000010000000000
0000000000000000
,
0101000000000000
0000010000000000
0000001000000000
0000000000000000
0000001000000000
0000001000000000
0000001001000000
0000000000000000
,
0000000000000000
0000000001000000
0000001000000000
0000000001000000
0000001000000000
0000000000000000
0000000000100000
0000000000000000
,
0001010000000000
0000000001000000
0000001000000000
0000000000000000
0000000000100000
0000000000010000
0000010000000000
0001000000000000
,
0000000000100000
0000000000010000
0000010000000000
0001000000000000
0000000000100000
0000000000000000
0000000000000000
0000000000000000
,
0000000000010000
0001000000000000
0000000000010000
0000000000000000
0000010000000000
0000000000000000
0000001000000000
0000000000000000
,
0000000000100000
0000000001000000
0000000000000010
0000000001000000
,
0000000000000010
0000000000000010
0000000000100000
0000000000000100
,
0000000000100000
0000000000000100
0000000000100000
0000000000000000
0000000000000100
0000000000000000
0000000000011010
0000000000000000
,
0000000000100000
0000000000000000
0000000001011000
0000000000000000
0000000000100000
0000000001000000
0000000000100000
0000000000000000
,
0000010000000000
0000001000000000
0000010000000000
0000000000000000
0000000000100000
0000000000000000
0000000001000000
0000000000000000
,
0000010000000000
0000000000000000
0000001000000000
0000000000000000
0000010000000000
0000010000000000
0000001000000000
0100000000000000
,
0000010000000000
0000000000000000
0000000000000000
0000000000000000
0010000000000000
0000001000000000
0100000000000000
0000000000000000
,
0000001000000000
0000001000000000
0010001000000000
0000000000000000
0010000000000000
0000001000000000
0100000000000000
0000000000000000
,
0000010000000000
1000010100000000
0010000000000000
0100000000000000
,
0000010000000000
0000000000000000
0000001000000000
0000000000000000
0000000001000000
0000001000000000
0000000001000000
0000000000000000
,
0000000000000010
0000000001000000
0000000000000010
0000000000000000
0000000000000100
0000000001000000
0000000000000010
0000000000000000
,
0000000001000000
0000000001000000
0000000001000100
0000000000000000
0000000000000100
0000000001000000
0000000000000010
0000000000000000
,
0000000000100000
0000000010100001
0000000000000100
0000000000000010
,
0000000000100000
0000000000000000
0000000001000000
0000000000000000
0000001000000000
0000000001000000
0000001000000000
0000000000000000
,
0100000000000000
0000001000000000
0100000000000000
0000001000000000
0011000000000000
0000000000000000
0000000000000000
0000000000000000
,
0000010000000000
0010000000000000
0000010000000000
0000000000000000
0010010000000000
0000000000000000
0000000000000000
0000000000000000
,
0000010000000000
0000001000000000
0000000001000000
0000010000000000
0000001000100000
0000000000000000
0000000000000000
0000000000000000
;
