#TITLE:Destiny;
#SUBTITLE:;
#ARTIST:BoA;
#TITLETRANSLIT:;
#SUBTITLETRANSLIT:;
#ARTISTTRANSLIT:;
#GENRE:;
#CREDIT:locuuraa;
#LYRICSPATH:;
#MUSIC:Destiny.ogg;
#OFFSET:2.960;
#SAMPLESTART:11.080;
#SAMPLELENGTH:12.000;
#SELECTABLE:YES;
#BPMS:0.000=105.040,62.500=3.000,62.833=6.000,63.000=105.040,63.250=105.040,63.500=105.040,66.500=3.000,66.667=5.000,66.833=15.000,67.000=105.040,67.500=105.040;
#STOPS:;
#KEYSOUNDS:;
#BANNER:Destiny.png;
#BACKGROUND:Destiny.png;
#CDTITLE:../CDTitles/4DSS.png;
#BGCHANGES:-14.700=Destiny.avi=1.000=0=0=1,
229.000=Destiny.png=1.000=0=0=1,
99999=-nosongbg-=1.000=0=0=0
;
#NOTES:
     ds3ddx-single:
     Hard:
     Medium:
     4:
     :
00000000
00000000
00000000
00000000
,
00000000
00000000
00000000
00000000
,
00000000
00000000
00000000
00000000
,
00000000
00000000
00000000
00000000
,
00000000
00000001
10000000
00000001
,
10000000
10000000
00000000
00000000
,
00000000
00000000
00100000
00000000
,
10100000
00000001
00000001
10000000
,
00000010
00000000
00000010
00000000
00010000
10000001
00010000
00000000
,
00000100
10000100
00000100
00100000
,
00010000
00000000
00100000
00000100
,
00100000
10100000
00000000
00000101
,
00000000
00000000
00010000
00000000
00000100
00000100
00000010
01000000
,
00000010
01000000
00000010
00000000
00000001
00000000
10000010
00000000
,
01000000
00000000
01000000
01000000
11000000
00000000
01000000
00000000
,
00000000
00000000
00100000
00000000
,
00100000
00000000
00010100
00000000
,
00000010
00000010
00000010
00000000
,
01000000
00000000
10000000
00000000
00000000
00000000
00000100
01000000
,
10000011
00010000
00000000
00000000
,
00000000
00000010
00010000
00100000
,
00000100
00000000
10000001
00000000
00100000
00100000
00000100
00000000
,
00000000
00000000
00000000
00000000
00000000
00000100
00010000
00000000
,
00000000
00010000
00100000
00000000
,
01000100
00000100
00100000
01000000
,
00000010
00000000
00000010
00000010
00000101
00010000
00000010
00000000
,
00000010
00010100
00110000
00000101
,
00000100
10000000
00000000
00100100
,
00000000
00000000
00010000
00000000
00010010
00010000
00110000
00010000
,
10000000
00000100
00100000
00000100
,
00100000
00100000
00000100
00100000
,
00010100
00000100
00010100
00010000
,
00010010
00000000
00011000
00010000
00010000
00010000
00010100
00000000
,
00000100
00010000
00000000
00000000
,
00000000
00010000
00000000
00000000
,
10000001
00000000
00000000
00000000
00000000
00000000
00000000
00000100
,
00000000
00100000
00000000
00000000
00000100
00000000
00000000
00000000
00000000
00000000
00000000
00000000
00000000
00000000
00000000
00000000
,
00010000
00000000
00000000
00010100
,
00000000
00000100
00000000
00000100
,
00000000
00100000
00000000
00010000
,
00000000
00000001
00010000
00000000
;
#NOTES:
     ds3ddx-double:
     Club:
     Easy:
     4:
     :
0000000000000000
0000000000000000
0000000000000000
0000000000000000
,
0000000000000000
0000000000000000
0000000000000000
0000000000000000
,
0000000000000000
0000000000000000
0000000000000000
0000000000000000
,
0000000000000000
0000000000000000
0000000000000000
0000000000000000
,
0000000000000000
0000000100000000
1000000000000000
0000000100000000
,
1000000000000000
1000000000000000
0000000000000000
0000000000000000
,
0000000000000000
0000000000000000
0000000000100000
0000000000000000
,
0000000010100000
0000000000000001
0000000000000001
0000000010000000
,
0000000000000010
0000000000000000
0000000000000010
0000000000000000
0000000000010000
0000000010000001
0000000000010000
0000000000000000
,
0000000000000100
0000000000110000
0000000001000000
0000010000000000
,
0001000000000000
0000000000000000
0010000000000000
0000010000000000
,
0010000000000000
1010000000000000
0000000000000000
0000010100000000
,
0000000000000000
0000000000000000
0001000000000000
0000000000000000
0000010000000000
0000010000000000
0000001000000000
0100000000000000
,
0000001000000000
0100000000000000
0000001000000000
0000000000000000
0000000100000000
0000000000000000
1000001000000000
0000000000000000
,
0100000000000000
0000000000000000
0100000000000000
0100000000000000
1100000000000000
0000000000000000
0100000000000000
0000000000000000
,
0000000000000000
0000000000000000
0000000000100000
0000000000000000
,
0000000000000100
0000000000000000
0000000000010100
0000000000000000
,
0000000000000010
0000000000000010
0000000000000010
0000000000000000
,
0000000001000000
0000000000000000
0000000010000000
0000000000000000
0000000000000000
0000000000000000
0000010000000000
0100000000000000
,
1000001100000000
0001000000000000
0000000000000000
0000000000000000
,
0000000000000000
0000001000000000
0001000000000000
0010000000000000
,
0000010000000000
0000000000000000
1000000100000000
0000000000000000
0010000000000000
0010000000000000
0000010000000000
0000000000000000
,
0000000000000000
0000000000000000
0000000000000000
0000000000000000
0000000000000000
0000010000000000
0001000000000000
0000000000000000
,
0000000000000000
0001000000000000
0010000000000000
0000000000000000
,
0100010000000000
0000010000000000
0010000000000000
0100000000000000
,
0000001000000000
0000000000000000
0000001000000000
0000001000000000
0000010100000000
0001000000000000
0000001000000000
0000000000000000
,
0000001000000000
0001010000000000
0011000000000000
0000010100000000
,
0000010000000000
1000000000000000
0000000000000000
0000010000100000
,
0000000000000000
0000000000000000
0000000000010000
0000000000000000
0000000000010010
0000000000010000
0000000000110000
0000000000010000
,
0000000010000000
0000000000000100
0000000000100000
0000000000000100
,
0000000000100000
0000000001000000
0000010000000000
0000001000000000
,
0001010000000000
0000010000000000
0001010000000000
0001000000000000
,
0001001000000000
0000000000000000
0001100000000000
0001000000000000
0001000000000000
0001000000000000
0001010000000000
0000000000000000
,
0000010000000000
0001000000000000
0000000000000000
0000000000000000
,
0000000000000000
0000000000010000
0000000000000000
0000000000000000
,
0000000010000001
0000000000000000
0000000000000000
0000000000000000
0000000000000000
0000000000000000
0000000000000000
0000000000000100
,
0000000000000000
0000000000100000
0000000000000000
0000000000000000
0000000000000100
0000000000000000
0000000000000000
0000000000000000
0000000000000000
0000000000000000
0000000000000000
0000000000000000
0000000000000000
0000000000000000
0000000000000000
0000000000000000
,
0000000000010000
0000000000000000
0000000000000000
0000000000010100
,
0000000000000000
0000000000000100
0000000000000000
0000000000000100
,
0000000000000000
0000000000100000
0000000000000000
0000000000010000
,
0000000000000000
0000000000000001
0000000000010000
0000000000000000
;
