#TITLE:DOOP (Dooper than doop);
#SUBTITLE:;
#ARTIST:DOOP;
#TITLETRANSLIT:;
#SUBTITLETRANSLIT:;
#ARTISTTRANSLIT:;
#GENRE:;
#CREDIT:locuuraa;
#LYRICSPATH:;
#MUSIC:DOOP (Dooper than doop).ogg;
#OFFSET:-0.100;
#SAMPLESTART:12.000;
#SAMPLELENGTH:12.000;
#SELECTABLE:YES;
#BPMS:0.000=130.000,55.833=250.000,63.000=130.000,65.000=10.000,65.125=130.000,65.500=130.000,190.000=250.000,196.000=130.000;
#STOPS:;
#KEYSOUNDS:;
#BANNER:DOOP (Dooper than doop).png;
#BACKGROUND:DOOP (Dooper than doop).png;
#CDTITLE:../CDTitles/4DSS.png;
#BGCHANGES:-14.700=DOOP (Dooper than doop).avi=1.000=0=0=1,
229.000=DOOP (Dooper than doop).png=1.000=0=0=1,
99999=-nosongbg-=1.000=0=0=0
;
#NOTES:
     ds3ddx-single:
     Hard:
     Medium:
     6:
     :
00000000
00000000
00000000
00000000
,
00000000
00000000
00000000
00000000
,
00000000
00000000
00000000
00000000
,
10000000
00010000
10000000
00000000
00000000
00000000
00000000
00000000
00000101
00000000
00010000
00000000
00100000
00000000
10000000
00000000
,
00100000
00000100
01000000
00000010
00100000
00000100
00100000
00000010
,
00100000
00000100
01000000
00000010
00000100
00100000
00000100
01000000
,
01000000
00000010
01000000
00000010
00100000
00000100
00100000
00000100
,
00000001
00010000
00000001
00000000
00000000
00000000
00000000
00000000
10100000
00000000
00010000
00000000
00000001
00000000
00000000
00000000
,
00100000
00000010
00100000
00000010
00000100
01000000
00000100
01000000
,
00000010
01000000
00000010
01000000
00000100
00100000
00000100
00100000
,
01000000
00100000
01000000
00100000
00000100
00000010
00000100
00000010
,
10000000
00000001
10000000
00000000
00000000
00000000
00000000
00000000
00100000
00000000
01000000
00000000
00000011
00000000
00000000
00000000
,
00100100
00000000
00000000
00000000
00100000
00000100
00000000
00000000
01000010
00000000
00000000
00000000
00000010
01000000
00000000
00000000
,
00100010
00000000
00000000
00000000
00000000
00000000
00100000
00000100
00000000
00000000
00000000
00000000
01000100
00000000
00000000
00000000
00000000
00000000
00000100
00100000
00000000
00000000
00000000
00000000
,
00010000
10000000
00010000
00000001
,
00010000
10000000
00010000
00000001
,
10000000
00000000
00110100
00010100
00000000
10100000
00000000
00000000
,
00110000
00000000
00000000
00000000
00000101
00000000
00000000
00000000
00000000
00000000
00000000
00000000
00100000
00000000
00000000
00000100
00000000
00000000
00100000
00000000
00000000
00000100
00000000
00000000
,
10000000
10000000
00000001
00000000
01010000
00000011
00000000
00000000
,
00010010
00000000
00000000
00000000
00000000
00000000
11000000
00000000
00000000
00000000
00000000
00000000
00000001
00000000
00000000
00000000
00000000
00000000
00000000
00000000
00010000
00000000
00000000
00000000
00000000
00000000
00000000
00000000
00010000
00000000
00000000
00000000
00000000
00000010
00000000
00000000
01000000
00000000
00000000
00000010
00000000
00000000
01000000
00000000
00000000
00000010
00000000
00000000
,
00000000
00100000
00000100
00100000
00000100
00100000
00000000
00000000
00100000
00000000
00010000
00000000
00000100
00000000
00000000
00000000
,
00000100
00010000
00100000
00000000
00010000
00010000
00000001
00000001
,
00100100
00000000
00100100
00000000
01000000
00010000
00000010
00000000
,
00000010
00010000
01000000
00000000
10000000
10000000
00000001
00000001
,
01000010
00000000
01000010
00000000
00100000
00000100
00100000
00000000
,
00000010
01000000
00000010
00000000
01000000
01000000
00000010
00000010
,
00100000
00000100
00000001
00000000
00000100
00100000
00000100
00000000
,
01000000
00000000
00000000
00000010
00000000
00000000
01000000
00000000
00000000
00000000
00000000
00000000
00000001
00000000
10000000
00000000
00000000
00000000
00000010
00000000
01000000
00000000
00000010
00000000
,
01000000
00000010
01000000
00000010
00000000
00000000
00010000
10000000
00010000
00000000
00000000
00000000
,
01100000
00000000
00000000
01100000
00000000
00000000
00010000
00000001
00010000
00000000
00000000
00000000
,
00000110
00000000
00000000
00000110
00000000
00000000
10000000
00000001
10000000
00000000
00000000
00000000
,
00100100
00000000
00000000
00100100
00000000
00000000
00000001
10000000
00000001
00000000
00000000
00000000
,
01000010
00000000
00000000
00000000
01000010
00000000
00000000
00000000
00100100
00000000
00000000
00000000
00100000
00000100
00000000
00000000
,
01000010
00000000
00000000
00000000
00000010
01000000
00000000
00000000
00000010
00000000
00000010
00000000
00000010
00000000
00000000
00000000
,
11000000
00000000
00000000
00000000
00000000
00000000
00000011
00000000
00000000
00000000
00000000
00000000
00100010
00000000
00000000
00000000
00000000
00000000
00100000
00000100
00000000
00000000
00000000
00000000
,
01000100
00000000
00000000
00000000
00000000
00000000
00000100
00100000
00000000
00000000
00000000
00000000
00000100
00000000
00000000
00000100
00000000
00000000
00000100
00000000
00000000
00000000
00000000
00000000
,
10100000
00000000
00000000
00000000
00000101
00000000
00000000
00000000
00100100
00000000
00000000
00000000
00100000
00000100
00000000
00000000
,
01000010
00000000
00000000
00000000
00000010
01000000
00000000
00000000
00000010
00000000
00000010
00000000
00000010
00000000
00000000
00000000
,
11000000
00000000
00000000
00000000
00000000
00000000
00000011
00000000
00000000
00000000
00000000
00000000
00100010
00000000
00000000
00000000
00000000
00000000
00100000
00000100
00000000
00000000
00000000
00000000
,
01000100
00000000
00000000
00000000
00000000
00000000
00000000
00000000
00000000
00000000
00000000
00000000
00000100
00000000
00100000
00000000
00000000
00000000
00000000
00000000
00000000
00000000
00010000
00000000
00000000
00000000
00000000
00010000
00000000
00000000
00000000
00000000
00000000
00000000
00000000
00000000
00000010
00000000
00000000
01000000
00000000
00000000
00000010
00000000
00000000
01000000
00000000
00000000
,
00000010
00000000
00100000
00000100
00100000
00000100
00100000
00000000
00000100
00000000
00010000
00000000
00100000
00000000
00010000
00000000
,
00000100
00010000
00100000
00010000
01000000
00000010
01000000
00000010
,
01000000
00000010
01000000
00000010
00100000
01000000
00100000
01000000
,
00100000
00000000
00000000
01000000
00000000
00000000
00100000
00000000
00000000
01000000
00000000
00000000
00010000
00000000
00000001
00000000
00010000
00000000
00000000
00000000
00000000
00000000
00000000
00000000
,
00000100
00000000
00000000
00000000
00000100
00000000
00000000
00000000
00100100
00000000
00000000
00000000
00100000
00000100
00000000
00000000
,
01000010
00000000
00000000
00000000
00000000
00000000
00000000
00000000
00000000
00000000
00000000
00000000
00000010
00000000
00000000
01000000
00000000
00000000
00000000
00000000
00000000
00000000
00000000
00000000
00100010
00000000
00000000
00000000
00000000
00000000
00000000
00000000
00000000
00000000
00000000
00000000
00100000
00000000
00000100
00000000
00000000
00000000
00000000
00000000
00000000
00000000
00000000
00000000
,
01000100
00000000
00000000
00000000
00000000
00000000
00000000
00000000
00000000
00000000
00000000
00000000
00000100
00000000
00100000
00000000
00000000
00000000
00000000
00000000
00000000
00000000
00000000
00000000
01100000
00000000
00000000
00000000
00000000
00000000
00000000
00000000
00000000
00000000
00000000
00000000
00100000
00000000
00000000
00000100
00000000
00000000
00000000
00000000
00000000
00000000
00000000
00000000
,
00000110
00000000
00000000
00000000
00000100
00100000
00000000
00000000
00010000
00000000
00000000
00000000
10000000
00000000
00000000
00000000
,
00010000
00000001
00010000
10000000
,
00010000
00000000
00000000
00000100
00100000
00000010
01000000
00000000
00000000
01000010
00000000
00000000
,
01000010
00000000
00000000
00000100
00100000
01000000
00000010
00000000
00000000
01000010
00000000
00000000
,
01000010
00000000
00000000
01000000
00000010
00100000
00000100
00000000
00000000
00100100
00000000
00000000
,
00100100
00000000
00000000
01000000
00000010
00100000
00000100
00000000
00000000
00100100
00000000
00000000
,
00100100
00000000
00000000
00000000
00000000
00000000
01000000
00000000
00000010
00000000
01000000
00000000
00000010
00000000
00000000
00000000
00000000
00000000
00100000
00000000
00000000
00000100
00000000
00000000
,
00110000
00000000
00000000
00000000
00000000
00000000
00100000
00000000
00000100
00000000
00100000
00000000
00000100
00000000
00000000
00000000
00000000
00000000
01000000
00000000
00000000
00000010
00000000
00000000
,
01010000
00000000
00000000
10000000
00000000
01100000
01100000
00000000
00000000
00010000
00000000
01100000
,
01100000
00000000
00000000
10000000
00010000
00000000
00000100
00100000
00000100
00100000
00000100
00000000
01000000
00000010
01000000
00000010
,
01000000
00000000
00000000
00000000
;
