#TITLE:DON'T BE STUPID;
#SUBTITLE:;
#ARTIST:Shania Twain;
#TITLETRANSLIT:;
#SUBTITLETRANSLIT:;
#ARTISTTRANSLIT:;
#GENRE:;
#CREDIT:locuuraa;
#LYRICSPATH:;
#MUSIC:DON'T BE STUPID.ogg;
#OFFSET:0.440;
#SAMPLESTART:11.660;
#SAMPLELENGTH:12.000;
#SELECTABLE:YES;
#BPMS:0.000=122.000;
#STOPS:;
#KEYSOUNDS:;
#BANNER:DON'T BE STUPID.png;
#BACKGROUND:DON'T BE STUPID.png;
#CDTITLE:../CDTitles/4DSS.png;
#BGCHANGES:-14.700=DON'T BE STUPID.avi=1.000=0=0=1,
229.000=DON'T BE STUPID.png=1.000=0=0=1,
99999=-nosongbg-=1.000=0=0=0
;
#NOTES:
     ds3ddx-single:
     Hard:
     Medium:
     5:
     :
00000000
00000000
00000000
00000000
,
00000000
00000000
00000000
00000000
00000000
00000000
00000000
00000100
,
00000001
00100000
00100000
00100000
,
00100000
00000100
00000100
00100000
,
00000010
00000000
10000000
10000000
10000000
00000000
00000010
00000000
,
01000000
00000000
00000001
00000001
00000001
00000000
00100000
00000000
,
00000100
00000000
10000000
00000001
10000000
00000000
00000100
00000000
,
00000010
00000000
00000001
10000000
00000001
00000000
00100000
00000000
,
01000000
00000100
00000110
10100000
,
10100000
00000010
00000100
00100000
,
00000010
11000000
11000000
00000010
,
00000100
00100000
00000010
01000000
,
00010100
00100000
01100000
00000101
,
00000101
01000000
00100000
00000100
,
01000000
00000011
00000011
01000000
,
00100000
00000100
01000000
00000010
,
00110000
00000000
00000001
00000001
00000001
00000000
00100100
00000000
,
00100100
00000000
10000000
10000000
10000000
00000000
01000010
00000000
,
01000010
00100000
00000100
00000010
,
01000000
10000000
00000001
00000100
,
00000010
00100000
00100000
00000100
,
00000010
01000000
00100000
00000101
,
10100000
00000100
11000000
00000100
,
00100000
00000001
00000001
00000000
,
01000000
00000100
00100000
01100000
,
00000100
00000010
01000000
00010000
,
00100000
00000010
00110000
00100100
,
00100100
01000000
01000000
00000010
,
00000100
00100000
00000100
01000010
,
01000010
00000000
10000000
00000000
00000010
01000000
00100000
01000000
,
00000010
10100000
10100000
00100100
,
00100100
00000011
00000011
01000010
,
01000010
00110000
00000101
00000110
,
00000110
00010010
11000000
01100000
,
01100000
00000101
00110000
01000100
,
01000100
00000011
01010000
00100010
,
00100010
01000000
00000100
00000011
,
00000011
00110000
11000000
00010100
,
00110000
00000100
00100000
01000000
,
00000100
00100000
01000000
00000100
,
00000010
00000100
00100000
01000000
,
00000100
00100000
00000010
00000100
,
01000000
00100000
00000100
00000010
,
00100000
00000000
00000010
01000000
00100000
01000000
00000010
00000000
,
00110100
10100000
10100000
00100100
,
00100100
00000011
00000011
01000010
,
01000010
00110000
00000101
00000110
,
00000110
00010010
11000000
01100000
,
01100000
00000101
00110000
01000100
,
01000100
00000011
01010000
00100010
,
00100010
01000001
10000010
00100001
,
10000100
00100000
00100000
00000100
,
00000100
00100100
00100001
00000000
;
