#TITLE:DIGNITY;
#SUBTITLE:;
#ARTIST:Crash;
#TITLETRANSLIT:;
#SUBTITLETRANSLIT:;
#ARTISTTRANSLIT:;
#GENRE:;
#CREDIT:locuuraa;
#LYRICSPATH:;
#MUSIC:DIGNITY.ogg;
#OFFSET:0.780;
#SAMPLESTART:11.780;
#SAMPLELENGTH:12.000;
#SELECTABLE:YES;
#BPMS:0.000=195.000,228.021=10.000,228.042=195.000,262.500=10.000,262.563=195.000;
#STOPS:;
#KEYSOUNDS:;
#BANNER:DIGNITY.png;
#BACKGROUND:DIGNITY.png;
#CDTITLE:../CDTitles/4DSS.png;
#BGCHANGES:-14.700=DIGNITY.avi=1.000=0=0=1,
229.000=DIGNITY.png=1.000=0=0=1,
99999=-nosongbg-=1.000=0=0=0
;
#NOTES:
     ds3ddx-single:
     Hard:
     Medium:
     8:
     :
00000000
00000000
00000000
00000000
,
00000000
00000000
00000000
00000000
,
00010100
00000000
00000000
00000000
11000101
01000000
00000010
00100000
,
00000100
00000010
00100000
00000100
00100000
01000000
00000100
00000010
,
01000000
00000010
01000000
00000010
00100000
00000100
00100000
00000100
,
00100000
00000010
00000100
00100000
00000010
00100000
00000100
01000000
,
00000010
00000100
00100000
00000100
01000000
00000010
00100000
00000100
,
00100000
01000000
00000100
00000010
00100000
00000010
01000000
00100000
,
00000010
00000100
00100000
00000010
00000100
01000000
00000010
01000000
,
00000100
01000000
00100000
00000010
00000100
01000000
00000010
00000100
,
01000000
00000100
00000010
00100000
01000000
00100000
00000100
00000010
,
00100000
00000100
01000000
00000010
00000100
00000010
01000000
00100000
,
00000010
00000100
00000010
00100000
01000000
00000100
00000010
00100000
,
00000100
01000000
00000010
00100000
00000010
00100000
00000010
00000100
,
01000000
00000010
00100000
00000100
01000000
00000010
00100000
00000100
,
01000000
00000100
00100000
00000100
01000000
00100000
00000010
00000100
,
01000000
00000010
00000100
00100000
00000100
00000010
01000000
00100000
,
00000100
00100000
00000010
01000000
00000100
00100000
00000010
00000100
,
01000000
00100000
00000010
00000100
00100000
01000000
00000010
00000100
,
00100000
00000010
00100000
01000000
00100000
01000000
00000100
00100000
,
00000010
01000000
00000010
00100000
00000100
00000010
00100000
00000100
,
00100000
01000000
00000100
00000010
01000000
00000100
00100000
00000010
,
01000000
00000000
00000000
00000100
00000000
00000000
00000100
00000000
00000000
00100000
00000000
00000000
00100000
00000000
00000000
00000010
01000000
00000000
00000010
00000000
01000000
00000000
00000010
00000000
,
01000000
00000100
01000000
00000010
01000000
00000010
00000010
00100000
,
00000100
01000000
01000000
00000010
01000000
00000100
00100000
00000010
,
00000010
01000000
01000000
00000100
00100000
00000010
00000010
01000000
,
01000000
00000100
00100000
00000010
00000100
00100000
01000000
00000100
,
01000000
00000010
00100000
00100000
00100000
00000100
00100000
00000010
,
00000000
00000000
00000000
00000100
00000000
00000000
11000000
00000000
00000000
00000000
00000000
00000000
00100000
00000000
00000000
00000000
00000011
00000000
00000000
00000000
00000000
00000000
00000000
00000000
,
00000000
00000000
00000000
00000000
00000000
00000000
01000000
00000011
,
00000000
00000010
11000000
00000000
00000000
00000101
10100000
00000000
,
00000100
01000000
00000010
00100000
00000100
01000000
00000010
01000000
,
00000100
00100000
00000010
00000100
01000000
00100000
00000100
00100000
,
01000000
00000010
00000100
00100000
00000010
01000000
00000100
00100000
,
00000010
01000000
00000100
00000010
01000000
00000010
00000100
00000010
,
00100000
00000100
01000000
00000010
00000100
01000000
00100000
00000010
,
00100000
00000100
00100000
00000100
00100000
01000000
00100000
01000000
,
00000100
00000010
01000000
00000010
00100000
00000100
00100000
01000000
,
00000010
00000100
01000000
00000010
00000100
01000000
00000010
00000100
,
00100000
01000000
00000100
00000100
00100000
00100000
00000010
01000000
,
00000100
00000010
01000000
00100000
00000100
00000010
00000100
00100000
,
01000000
00100000
00000100
00000010
00000100
00100000
01000000
00100000
,
00000100
00000010
00100000
00100000
00000010
01000000
00000100
00000100
,
01000000
00000010
00000100
01000000
00000010
00000010
01000000
01000000
,
00000100
00000010
01000000
00100000
00000010
00000100
01000000
00000010
,
00100000
00000100
00100000
01000000
00000100
00000010
00000100
00000010
,
00100000
01000000
00100000
01000000
00000100
01000000
00000100
00100000
,
00000010
01000000
00000010
00100000
00100000
00000010
00000010
01000000
,
00000011
00000000
00000000
11000011
,
00000000
00000000
00000100
11000101
00000000
00000000
01000000
00000010
,
00000100
01000000
00000010
00000100
01000000
00100000
00000100
00000010
,
00000100
00100000
01000000
00000010
00000100
00100000
01000000
00000100
,
00100000
00000010
00000010
01000000
00000100
00000100
01000000
00100000
,
00000100
01000000
01000000
00000010
00000100
01000000
00000010
00000100
,
01000000
00100000
00000100
01000000
00000010
00100000
00000010
01000000
,
01000000
00000010
00000010
00000100
00100000
00100000
00000010
00100000
,
00000010
00000100
00100000
00000010
01000000
01000000
00000100
01000000
,
00000010
00100000
01000000
00100000
01000000
00000100
00000010
01000000
,
00000100
00000010
01000000
00000010
00100000
00000100
01000000
00100000
,
00000010
00000100
01000000
00000010
00000010
01000000
00000100
00100000
,
00100000
00000010
01000000
00000100
00000010
00100000
01000000
00000010
,
00000100
01000000
00100000
00000010
00000100
01000000
00100000
00000100
,
00100000
00000010
00000100
01000000
00000100
01000000
01000000
00000010
,
00000100
00100000
00100000
00000100
00000010
01000000
00000100
00000010
,
00100000
00000100
01000000
00000010
00000010
01000000
01000000
00000100
,
00000010
00000100
00100000
01000000
00100000
00000101
00000000
00000000
,
00000000
00000000
00000100
00000110
00000000
00100000
01100000
00000000
,
00000100
01000100
00000000
00000100
10100101
00000000
01000000
11000011
,
00000000
00000010
11000011
00000000
00100000
10100011
00000000
00000100
,
11000101
00000000
00000000
00000100
10110101
00000000
00000000
00000000
;
#NOTES:
     ds3ddx-double:
     Club:
     Easy:
     8:
     :
0000000000000000
0000000000000000
0000000000000000
0000000000000000
,
0000000000000000
0000000000000000
0000000000000000
0000000000000000
,
0001010000000000
0000000000000000
0000000000000000
0000000000000000
1100010100000000
0100000000000000
0000001000000000
0010000000000000
,
0000010000000000
0000001000000000
0010000000000000
0000010000000000
0010000000000000
0100000000000000
0000010000000000
0000001000000000
,
0100000000000000
0000001000000000
0000010000000000
0000001000000000
0000000000100000
0000000001000000
0000000000000010
0000000001000000
,
0000000000100000
0000000000000010
0000000000000100
0000000001000000
0000000000100000
0000010000000000
0000001000000000
0100000000000000
,
0000001000000000
0000010000000000
0010000000000000
0000010000000000
0100000000000000
0000001000000000
0010000000000000
0000010000000000
,
0010000000000000
0100000000000000
0000010000000000
0000001000000000
0010000000000000
0000001000000000
0000010000000000
0000000000100000
,
0000010000000000
0000000000100000
0000010000000000
0000000001000000
0000010000000000
0000000000100000
0000000001000000
0000000000000010
,
0000000000000100
0000000001000000
0000000000000100
0000000000000010
0000000000100000
0000000001000000
0000000000000010
0000000000000100
,
0000000001000000
0000000000000100
0000000001000000
0000000000100000
0000010000000000
0000000001000000
0000001000000000
0000010000000000
,
0010000000000000
0000010000000000
0100000000000000
0000001000000000
0000010000000000
0000001000000000
0100000000000000
0010000000000000
,
0000001000000000
0000010000000000
0000001000000000
0010000000000000
0100000000000000
0000010000000000
0000001000000000
0010000000000000
,
0000010000000000
0100000000000000
0000001000000000
0010000000000000
0000001000000000
0010000000000000
0000001000000000
0000010000000000
,
0100000000000000
0000001000000000
0010000000000000
0000010000000000
0100000000000000
0000001000000000
0010000000000000
0000010000000000
,
0000001000000000
0000010000100000
0000001000000000
0000000001000000
0000010000000000
0000000001000000
0000001000000000
0000000000100000
,
0000010000000000
0000000001000000
0000010000000000
0000000001000000
0000000000100000
0000000000000100
0000000000100000
0000000001000000
,
0000000000000010
0000000000000100
0000000000100000
0000000000000010
0000000001000000
0000000000000100
0000000000100000
0000000001000000
,
0000000000000010
0000000001000000
0000000000100000
0000010000000000
0000001000000000
0100000000000000
0000001000000000
0000010000000000
,
0010000000000000
0000001000000000
0010000000000000
0100000000000000
0010000000000000
0100000000000000
0000010000000000
0010000000000000
,
0000001000000000
0000010000000000
0000000000100000
0000000001000000
0000000000000010
0000000000000100
0000000000000010
0000000001000000
,
0000000000100000
0000010000000000
0000001000000000
0000000000000000
0100000000000000
0000010000000000
0010000000000000
0000001000000000
,
0100000000000000
0000000000000000
0000000000000000
0000010000000000
0000000000000000
0000000000000000
0000010000000000
0000000000000000
0000000000000000
0010000000000000
0000000000000000
0000000000000000
0010000000000000
0000000000000000
0000000000000000
0000001000000000
0100000000000000
0000000000000000
0000001000000000
0000000000000000
0100000000000000
0000000000000000
0000001000000000
0000000000000000
,
0100000000000000
0000010000000000
0100000000000000
0000001000000000
0100000000000000
0000001000000000
0000010000000000
0000001000000000
,
0000010000000000
0000001000000000
0000000000100000
0000000001000000
0000000000100000
0000000001000000
0000000000000010
0000000001000000
,
0000000000000100
0000000000100000
0000000000000010
0000000000000100
0000000000100000
0000000001000000
0000000000000100
0000000000000010
,
0000000000100000
0000000000000100
0000000000000010
0000000001000000
0000000000100000
0000010000000000
0000001000000000
0100000000000000
,
0000010000000000
0000001000000000
0010000000000000
0010000000000000
0010000000000000
0000010000000000
0010000000000000
0000001000000000
,
0000000000000000
0000000000000000
0000000000000000
0000010000000000
0000000000000000
0000000000000000
1100000000000000
0000000000000000
0000000000000000
0000000000000000
0000000000000000
0000000000000000
0010000000000000
0000000000000000
0000000000000000
0000000000000000
0000001100000000
0000000000000000
0000000000000000
0000000000000000
0000000000000000
0000000000000000
0000000000000000
0000000000000000
,
0000000000000000
0000000000000000
0000000000000000
0000000000000000
0000000000000000
0000000000000000
0000001000000000
0000000001001000
,
0000000000000000
0000000000100000
0000000000000010
0000000000000000
0000000000000000
0000000000000100
0000000010100000
0000000000000000
,
0000000000000100
0000000001000000
0000000000000010
0000000001000000
0000010000000000
0100000000000000
0000001000000000
0100000000000000
,
0000010000000000
0010000000000000
0000001000000000
0000010000000000
0100000000000000
0010000000000000
0000010000000000
0010000000000000
,
0100000000000000
0000001000000000
0000010000000000
0010000000000000
0000001000000000
0100000000000000
0000010000000000
0010000000000000
,
0000001000000000
0000010000000000
0000000000100000
0000000001000000
0000000000000010
0000000000000100
0000000000000010
0000000001000000
,
0000000000100000
0000010000000000
0000001000000000
0000000000100000
0000000001000000
0000010000000000
0000000000100000
0000001000000000
,
0000000000100000
0000010000000000
0000000001000000
0000010000000000
0000001000000000
0000010000000000
0000001000000000
0000000000100000
,
0000000001000000
0000000000000100
0000000000000010
0000000000100000
0000000000000010
0000000000100000
0000000001000000
0000000000000010
,
0000000000000100
0000000000100000
0000000000000010
0000000001000000
0000000000000100
0000000001000000
0000000000100000
0000010000000000
,
0010000000000000
0100000000000000
0000010000000000
0000010000000000
0010000000000000
0010000000000000
0000001000000000
0100000000000000
,
0000010000000000
0000001000000000
0100000000000000
0010000000000000
0000010000000000
0000001000000000
0000010000000000
0010000000000000
,
0100000000000000
0010000000000000
0000010000000000
0000001000000000
0000000000100000
0000000000000100
0000000000000010
0000000000000100
,
0000000000100000
0000000001000000
0000010000000000
0010000000000000
0100000000000000
0000010000000000
0000000000100000
0000010000000000
,
0000000001000000
0000001000000000
0000000000100000
0000001000000000
0000010000000000
0010000000000000
0000001000000000
0100000000000000
,
0000010000000000
0000001000000000
0100000000000000
0010000000000000
0000001000000000
0000010000000000
0000000000100000
0000000001000000
,
0000010000000000
0000001000000000
0000000000100000
0000001000000000
0000010000000000
0000000001000000
0000010000000000
0000000000100000
,
0000000001000000
0000000000000010
0000000001000000
0000000000000100
0000000001000000
0000000000100000
0000010000000000
0010000000000000
,
0000001000000000
0100000000000000
0000001000000000
0010000000000000
0010000000000000
0000001000000000
0000001000000000
0100000000000000
,
0000001100000000
0000000000000000
0000000000000000
1100001100000000
,
0000000000000000
0000000000000000
0000000000100000
0000000001110000
0000000000000000
0000000000000000
0000000000000010
0000000001000000
,
0000000000000100
0000000001000000
0000000000000010
0000000000000100
0000000001000000
0000000000100000
0000000000000100
0000000000000010
,
0000000000000100
0000000000100000
0000000001000000
0000001000000000
0000010000000000
0010000000000000
0100000000000000
0000010000000000
,
0010000000000000
0000001000000000
0100000000000000
0000001000000000
0000010000000000
0000000000100000
0000000001000000
0000010000000000
,
0000000001000000
0000010000000000
0000000001000000
0000001000000000
0000000000100000
0000000000000100
0000000001000000
0000000000000100
,
0000000000100000
0000000000000010
0000000001000000
0000010000000000
0000001000000000
0100000000000000
0000010000000000
0100000000000000
,
0000010000000000
0010000000000000
0000001000000000
0000010000000000
0010000000000000
0000010000000000
0000001000000000
0010000000000000
,
0000001000000000
0000010000000000
0000000000100000
0000000001000000
0000010000000000
0000000000100000
0000010000000000
0000000000000000
,
0000001001000000
0000000000100000
0000000001000000
0000000000000010
0000000000000100
0000000001000000
0000000000000010
0000000000000100
,
0000000000100000
0000000000000010
0000000001000000
0000000000000100
0000000000100000
0000000000000100
0000000001000000
0000010000000000
,
0000000001000000
0000010000000000
0000000000100000
0000001000000000
0000000000100000
0000010000000000
0000001000000000
0000000000100000
,
0000000000000100
0000000000000010
0000000001000000
0000000000000010
0000000000000100
0000000001000000
0000000000100000
0000010000000000
,
0000000001000000
0000001000000000
0000000001000000
0010000000000000
0000010000000000
0100000000000000
0010000000000000
0000010000000000
,
0010000000000000
0000001000000000
0000010000000000
0100000000000000
0000010000000000
0100000000000000
0000001000000000
0000010000000000
,
0000000000100000
0000000001000000
0000000000000010
0000000000000100
0000000000100000
0000000000000010
0000000000000100
0000000001000000
,
0000000000000100
0000000000100000
0000000000000100
0000000001000000
0000000000100000
0000010000000000
0000001000000000
0100000000000000
,
0000001000000000
0000010000000000
0010000000000000
0100000000000000
0010000000000000
0000010100000000
0000000000000000
0000000000000000
,
0000000000000000
0000000000000000
0010000000000000
0110000000000000
0000000000000000
0000010000000000
0000011000000000
0000000000000000
,
0000000000100000
0000001001000000
0000000000000000
0000000000100000
0000010000100000
0000000000000000
0000000000000010
0000000011000011
,
0000000000000000
0000000001000000
0000000011000011
0000000000000000
0000000000100000
0000000010100011
0000000000000000
0000000000000100
,
0000000011000101
0000000000000000
0000000000000000
0000000000100000
0000000010110101
0000000000000000
0000000000000000
0000000000000000
;
