#TITLE:DAGARA;
#SUBTITLE:~ Let's Go;
#ARTIST:严正花;
#TITLETRANSLIT:;
#SUBTITLETRANSLIT:;
#ARTISTTRANSLIT:Uhm Jung Hwa;
#GENRE:;
#CREDIT:locuuraa;
#LYRICSPATH:;
#MUSIC:DAGARA.ogg;
#OFFSET:2.000;
#SAMPLESTART:11.120;
#SAMPLELENGTH:12.000;
#SELECTABLE:YES;
#BPMS:0.000=117.970;
#STOPS:;
#KEYSOUNDS:;
#BANNER:DAGARA.png;
#BACKGROUND:DAGARA.png;
#CDTITLE:../CDTitles/4DSS.png;
#BGCHANGES:-14.700=DAGARA.avi=1.000=0=0=1,
229.000=DAGARA.png=1.000=0=0=1,
99999=-nosongbg-=1.000=0=0=0
;
#NOTES:
     ds3ddx-single:
     Hard:
     Medium:
     5:
     :
00000000
00000000
00000000
00000000
,
00000000
00000000
00000000
00000000
,
00000000
00000000
00000000
00000000
,
00000000
00000010
00000000
01000000
,
00000000
00000010
00000000
01000000
,
00000000
00000010
00000000
01000000
,
00000000
00000010
00000000
01000000
,
00000000
00000100
00100000
00000100
,
00000100
00100000
00000000
00000100
,
00000000
10000001
00110000
01000000
,
01000000
00000000
11000011
00010000
10000000
00000001
10000001
00000000
,
00000000
00110000
00010000
00010100
,
00010000
00110000
00010000
00000100
,
00000010
00110000
00010000
00000100
,
10000100
00100000
10000000
01001000
,
00000010
00000100
00010000
00000010
,
00000010
00000100
00000100
00000100
,
00000001
10000000
00001000
00010000
,
00001000
00000100
00100000
00000010
,
01000000
00000100
00100000
00000100
,
00100000
00000000
00000000
00000000
00010000
10000000
00010000
00000000
,
00000100
00110100
00100100
00110100
,
00100100
00010000
10000001
00000000
,
00110100
00000000
00010100
00110000
,
00010100
00000000
00100001
00000000
00010100
00000000
00100001
00010100
,
00100001
10000000
00000001
00010000
,
00001000
00000000
00010000
00000000
,
00000101
00101000
00000000
00110000
,
00000000
00101000
00000000
00110000
,
00000000
00010100
00000010
01000000
,
01000000
00100000
10000011
00000000
,
00000010
00000100
00100000
00100000
,
00100000
01000000
01000000
01000000
,
01000000
01000000
00110000
01000000
,
01000000
00010100
00000100
00110000
,
00100000
00000101
00000001
01000000
,
01000000
00000100
00000001
00010000
,
00000000
00110000
00010000
00010100
,
00010000
00110000
00010100
01010000
,
00010010
00000101
00000001
01000000
,
01000000
00000101
10000001
00010000
,
00000000
00100000
00100000
00000100
,
00000100
00100000
00000100
01000000
,
00000010
00100000
10010001
00000100
,
00100001
00100000
00100000
00100000
,
10000000
01000000
00000100
00100000
,
01000000
00000010
01000000
00000010
,
01000000
00000101
00000001
01000000
,
01000000
00000100
00100000
00000100
,
00100000
00010100
00000100
00110000
,
00100000
10000101
01000000
00001010
,
00000000
00000010
00000000
00000000
;
#NOTES:
     ds3ddx-double:
     Club:
     Easy:
     5:
     :
0000000000000000
0000000000000000
0000000000000000
0000000000000000
,
0000000000000000
0000000000000000
0000000000000000
0000000000000000
,
0000000000000000
0000000000000000
0000000000000000
0000000000000000
,
0000000000000000
0000000000000000
0000000000000000
0000001000000000
,
0000000000000000
0100000000000000
0000000000000000
0000001000000000
,
0000000000000000
0100000000000000
0000000000000000
0000001000000000
,
0000000000000000
0000000001000000
0000000000000000
0000000000000100
,
0000000000000000
0000000001000000
0000000000000000
0000000000000100
,
0000000000100000
0000000000000100
0000000000000100
0000000000100000
,
0000000000000000
0000001000000100
0000000000000000
0000000010000001
,
0000000000110000
0000000000000000
0000000001000000
0000000000000000
0000000001000000
0000000000000000
0000000011000011
0000000000010000
,
0000000010000000
0000000000000001
0000000010000001
0000000000000000
0000000000000000
0000000000000000
0000000000110000
0000000000000000
,
0000000000010000
0001000000000000
0000000000100000
0000001000000000
,
0000000000100000
0000001000000000
0000000001000000
0011000000000000
,
0001000000000000
0000010000000000
1000010000000000
0010000000000000
,
1000000000000000
0100100000000000
0000001000000000
0000010000000000
,
0001000000000000
0000001000000000
0000001000000000
0000000000100000
,
0000000000100000
0000000001000000
0000000000000001
0000000010000000
,
0000000000010000
0000000000010000
0000000000000001
0000000000000100
,
0000000000100000
0000000000000010
0000000001000000
0000000000000100
,
0000000001000000
0000000000100000
0000001000000000
0000000000000000
,
0001000000000000
1000000000000000
0001000000000000
0000000000000000
0000010000000000
0000000000000000
0011010000000000
0000000000000000
,
0010010000000000
0011010000000000
0010010000000000
0001000000000000
,
1000000100000000
0000000000000000
0011010000000000
0000000000000000
,
0001010000000000
0011000000000000
0001010000000000
0010000100000000
,
0001010000000000
0000000000000000
0010000100000000
0001010000000000
0010000100000000
0000000000000000
1000000000000000
0000000000000000
,
0000000100000000
0000000000010000
0000000000001000
0000000000000000
,
0000000000010000
0000000000000000
0000000000000101
0000000000101000
,
0000000000000000
0000000000110000
0000000000000000
0000000000101000
,
0000000000000000
0000000000110000
0000000000000000
0001010000000000
,
0000001000000000
0100000000000000
0100000000000000
0010000000000000
,
1000001100000000
0000000000000000
0000001000000000
0000010000000000
,
0010000000000000
0010000000000000
0000001000000000
0000010000000000
,
0000010000000000
0000000001000000
0000010000000000
0000000000100000
,
0000001000000000
0000000001000000
0000000000000100
0000000000010100
,
0000000000000100
0000000000110000
0000000000100000
0000000000000101
,
0000000000000001
0000000001000000
0000000001000000
0000000000000100
,
0000000000000001
0000000000010000
0000000000000000
0011000000000000
,
0001000000000000
0001010000000000
0001000000000000
0011000000000000
,
0001010000000000
0101000000000000
0001001000000000
0000010100000000
,
0000000100000000
0100000000000000
0100000000000000
0000010100000000
,
1000000100000000
0001000000000000
0000000000000000
0010000000000000
,
0000001000000000
0000000000100000
0000000001000000
0000000000000100
,
0000000001000000
0000000001000000
0000000000000010
0000000000100000
,
0000000010000001
0000000000000100
0000000000100001
0000000000100000
,
0000000000100000
0000000000100000
0000000010000000
0000000000000010
,
0000000000000100
0000000000100000
0000000001000000
0000000000000010
,
0000000000100000
0000001000000000
0000000001000000
0001010000000000
,
0000000100000000
0100000000000000
0100000000000000
0000010000000000
,
0010000000000000
0000010000000000
0010000000000000
0000010000000000
,
0000001000000000
0000000000100000
0000000001000000
0000010000000000
,
0000000001000000
0000101000000000
0000000000000000
0000000000100000
;
#NOTES:
     ds3ddx-single:
     Easy:
     Easy:
     4:
     :
00000000
00000000
00000000
00000000
,
00000000
00000000
00000000
00000000
,
00000000
00000000
00000000
00000000
,
00000000
00000000
00000000
00000010
,
00000000
01000000
00000000
00000010
,
00000000
01000000
00000000
00000010
,
00000000
01000000
00000000
00000010
,
00000000
01000000
00000000
00000100
,
00100000
00000100
00000000
00100000
,
00000000
00000100
00000000
10000001
,
00010000
00000000
01000000
00000000
,
10000000
00000001
00000000
00010000
,
00000000
00000100
00000000
00010000
,
00010000
00000100
00000010
00100000
,
00000000
00000100
00000000
00100000
,
00000000
01001000
00000010
00000100
,
00010000
00000010
00000000
00000100
,
00000000
00000100
00000001
10000000
,
00001000
00010000
00001000
00000100
,
00100000
00000010
01000000
00000100
,
00100000
00000100
00100000
00000000
,
00010000
00010000
00000000
00000100
,
00100000
00000000
00000100
00010000
,
10000001
00000000
00100100
00000000
,
00010000
00010000
00010000
00000000
,
00010100
00000000
00000000
00000100
00000000
00000000
10000000
00000000
,
00000001
00010000
00001000
00000000
,
00010000
00000000
00000100
00100000
,
00000000
00010000
00000000
00001000
,
00000000
00110000
00000000
00010000
,
00000010
01000000
00000000
00100000
,
00000001
00000000
00000010
00000100
,
00100000
00000000
00100000
00000000
,
01000000
00000000
01000000
00000000
,
00110000
01000000
01000000
00010000
,
00000000
00110000
00000000
00000100
,
00000000
01000000
00000000
00000100
,
00000001
00010000
00000000
00010000
,
00010000
00010000
00000000
00100000
,
00000100
01000000
00000000
00000101
,
00000000
01000000
00000000
00000000
,
10000001
00010000
00000000
00100000
,
00000000
00000100
00000000
00100000
,
00000100
01000000
00000010
00100000
,
00000001
00000000
00100001
00000000
,
00100000
00000000
10000000
00000000
,
00000100
00100000
00000000
00000010
,
01000000
00000010
01000000
00000000
,
00000001
00000000
01000000
00000100
,
00000000
00000100
00100000
00000000
,
00000100
00000000
00100000
00000001
,
01000000
00001010
00000000
00000010
;
