#TITLE:Close To You;
#SUBTITLE:;
#ARTIST:Whigfield;
#TITLETRANSLIT:;
#SUBTITLETRANSLIT:;
#ARTISTTRANSLIT:;
#GENRE:;
#CREDIT:locuuraa;
#LYRICSPATH:;
#MUSIC:Close To You.ogg;
#OFFSET:-0.200;
#SAMPLESTART:12.020;
#SAMPLELENGTH:12.000;
#SELECTABLE:YES;
#BPMS:0.000=153.000;
#STOPS:;
#KEYSOUNDS:;
#BANNER:Close To You.png;
#BACKGROUND:Close To You.png;
#CDTITLE:../CDTitles/4DSS.png;
#BGCHANGES:-14.700=Close To You.avi=1.000=0=0=1,
229.000=Close To You.png=1.000=0=0=1,
99999=-nosongbg-=1.000=0=0=0
;
#NOTES:
     ds3ddx-single:
     Hard:
     Medium:
     4:
     :
00000000
00000000
00000000
00000000
,
00000000
00000000
00000000
00000000
,
00000000
00000000
00000000
00000000
,
00000000
00010000
00000000
00000000
,
00000000
00000000
00000000
00000001
,
00000000
00000000
00000000
00000000
,
00000000
00000100
00000000
00000000
,
00000000
00000000
00000000
00100000
,
00000000
00000000
00000000
00000000
,
00000000
01000000
00000000
00000000
,
00000000
00000000
00000000
00000010
,
00000000
00000000
00000000
00000000
,
00000000
00000000
00000000
00000000
,
00000000
00000000
00000000
10100001
,
00000000
00000000
00000011
00000000
,
00000000
10000101
00000000
00000000
,
11000000
00000000
00000000
00000000
00000000
00000000
00110000
10000000
,
00000000
00000000
00000011
00000000
,
00000000
00000000
00010100
00000001
00000000
00000000
00000000
00000000
,
11000000
00000000
00000000
00000000
00000000
00000000
00000100
00100000
,
00000000
01010000
00000000
00000000
00100000
00000100
00000000
00010010
,
00000000
00000000
00100000
00000010
00000000
01010010
00000000
00000000
,
00000100
00100000
00000000
11000011
00000000
00000000
00000100
00100000
,
00000000
00100100
00000000
00000000
00000010
01000000
00000000
01000010
,
00000000
00000000
00010010
01010000
00000000
10000001
00000000
00000000
,
00100000
00000000
00000000
00000010
00000000
00000000
01000000
00000001
,
00000000
00000010
10000000
00000000
00100000
00000000
00000000
00000100
,
00000000
00000000
01000000
00000010
00000000
00010000
00000000
00000000
,
00000100
00100000
00000000
00010000
00000000
00000000
00000100
00000000
,
00000000
10000010
00000000
00000000
00100000
00000000
00000000
01000001
,
00000000
00000000
00000100
00000010
00000000
11000000
00000000
00000000
,
00100000
01000000
00000000
00000011
00000000
00000000
00000101
00000000
,
00000000
10100000
00000000
00000000
01000000
01000010
00000000
01000010
,
00000000
00000000
00000011
00000000
00000000
11000000
00000000
00000000
,
00000100
00100100
00000000
00100100
00000000
00000000
01000000
00000000
,
00000000
00000011
00000000
00000000
00000100
00000000
00000000
11000000
,
00000000
00011000
00000000
00000000
,
00100000
00000000
00000000
01010100
00000000
00000000
00000010
00000000
,
00000000
10100000
00000000
00000000
01000000
00000000
00000000
00000101
,
00000000
00000000
00100000
00000000
00000000
01100000
00000000
00000000
,
00000100
00000000
00000000
00000110
00000000
00000000
00100000
00000000
,
00000000
11000000
00000000
00000000
00000100
00000000
00000000
00000011
,
00000000
00000000
00100000
00000000
00000000
01100000
00000000
00000000
,
00000100
00000000
00000000
00000110
00000000
00000000
00100000
00000000
,
00000000
01010000
00000000
00000000
00000100
00000000
00000000
00010010
,
00000000
00000000
10100000
00000101
00000000
10100000
00000000
00000000
,
00000011
11000000
00000000
00000011
00000000
00000000
00100000
00000000
,
00000000
01010000
00000000
00000000
00000100
00000000
00000000
00010010
,
00000000
00000000
10000000
00000000
00000000
00000001
00000000
00000000
,
10100001
00000000
00000000
10000101
00000000
00000000
00000000
00100000
,
00000000
00000000
00000101
00000000
00000000
00000010
00000000
10100000
,
00000000
00000000
01000000
00000000
00000000
10100000
00000000
00000000
,
00000100
00000000
00000000
00000011
00000000
00000000
00010000
00000000
,
00000000
10000001
00000000
00000000
00010000
00000000
00000000
10010000
,
00000000
00000000
00010000
00000000
00000000
00010001
00000000
00000000
,
00010000
00000000
00000000
10000001
00000000
00000000
00000000
00000000
;
