#TITLE:Candy;
#SUBTITLE:;
#ARTIST:H.O.T.;
#TITLETRANSLIT:;
#SUBTITLETRANSLIT:;
#ARTISTTRANSLIT:;
#GENRE:;
#CREDIT:locuuraa;
#LYRICSPATH:;
#MUSIC:Candy.ogg;
#OFFSET:0.760;
#SAMPLESTART:11.580;
#SAMPLELENGTH:12.000;
#SELECTABLE:YES;
#BPMS:0.000=120.000;
#STOPS:;
#KEYSOUNDS:;
#BANNER:Candy.png;
#BACKGROUND:Candy.png;
#CDTITLE:../CDTitles/4DSS.png;
#BGCHANGES:-14.700=Candy.avi=1.000=0=0=1,
229.000=Candy.png=1.000=0=0=1,
99999=-nosongbg-=1.000=0=0=0
;
#NOTES:
     ds3ddx-single:
     Hard:
     Medium:
     4:
     :
00000000
00000000
00000000
00000000
,
00000000
00000000
00000000
00000000
,
00000000
00000000
00000000
00000000
,
00000000
00000000
00000000
00000000
,
00000000
00000000
00000000
00000000
,
00000000
00000000
00000000
10000101
,
01000000
00000010
01000010
10100001
,
00000010
01000000
01000010
00000100
,
00000011
00000000
00100000
01000000
00100000
00000000
00000101
00000000
,
10100000
00000000
00000010
01000000
00000010
00000000
00100000
00000000
,
11000100
00000100
00100011
10010100
,
01000000
00000000
00000100
00000010
01000000
00000000
10000100
00000000
,
00000000
00000000
00100000
00010000
00100000
00000000
00000010
00000000
,
01000000
00000000
00000100
00100000
00000100
00000000
10000011
00000000
,
01000000
00000000
00000010
01000000
00000010
00000000
11000001
00000000
,
00000010
00000000
01000000
00000010
01000000
00000000
00000100
00000000
,
00000000
00000000
00100000
00000000
00000000
00000000
00000100
00100000
,
00000010
01000000
01000010
00000000
00000000
00000000
11000000
00000000
,
00000011
00000000
00110000
00000010
01000000
00000000
00000011
00000000
,
11000000
00000000
00010100
01000000
00000010
00000000
00100000
00000000
,
01000000
00000010
01000000
00100100
,
00000011
00000000
00100100
00000000
11000000
00000000
00100000
00000011
,
00100000
00000000
00000100
11000000
00000100
00000000
00100000
00000000
,
00100000
00100000
00000000
01000010
,
01010000
00100100
00100001
00000010
,
00000100
00000000
00100000
00000000
01000000
00000000
00000100
00000100
,
00100000
00100000
00000100
00100000
00000010
01000000
11000000
00000000
,
00000011
01000000
01000000
00000011
,
11000000
00000010
00000010
00110000
,
00000000
00000000
00010100
00000000
00000000
00000000
00100100
00000001
,
00100100
10000000
00000010
01000000
00000010
00000000
00000011
00000000
,
11000000
00000010
00000010
11000000
,
00000011
00000000
01000000
00000000
01000000
00000000
00000100
00000100
,
00000100
00000000
01000000
00000010
01000000
00000000
10000001
00000000
,
00000000
00010000
00000000
00100000
,
00100100
00000010
01000010
00100000
,
10100000
00000000
00000100
00000000
00000101
00000000
01000000
01000000
,
00000010
00100000
00000100
00000100
01000000
00000001
01000000
00000010
,
01000000
00000010
10000000
00000001
10000000
00000000
00000100
00000000
,
00100000
00000000
00000010
00000100
00000010
00000000
00100001
00000000
,
00010100
00000010
01000010
00000100
,
00000010
00000000
00000100
00000010
00000100
00000000
01010000
00000000
,
00100000
00000000
01000000
00000000
00100000
00000000
01000000
00100000
,
00000100
00000010
00100000
01000000
00000100
00000010
00100000
00000100
,
00100000
00000100
01000000
00000010
01000010
00010000
00000000
00000000
;
#NOTES:
     ds3ddx-double:
     Club:
     Easy:
     4:
     :
0000000000000000
0000000000000000
0000000000000000
0000000000000000
,
0000000000000000
0000000000000000
0000000000000000
0000000000000000
,
0000000000000000
0000000000000000
0000000000000000
0000000000000000
,
0000000000000000
0000000000000000
0000000000000000
0000000000000000
,
0000000000000000
0000000000000000
0000000000000000
0000000000000000
,
0000000000000000
0000000000000000
0000000000000000
0001000000110000
,
0000001000000000
0000000001000000
0000001001000000
0001010000010000
,
0000000001000000
0000001000000000
0000001001000000
0000000000100000
,
0000000000000101
0000000000000000
0000000000100000
0000000001000000
0000000000100000
0000000000000000
0000000000000101
0000000000000000
,
0000000010100000
0000000000000000
0000000001000000
0000001000000000
0000000001000000
0000000000000000
0000010000000000
0000000000000000
,
0000101000100000
0000000000100000
0000010001001000
0000001000000000
,
0100000000000000
0000000000000000
0000010000000000
0000001000000000
0100000000000000
0000000000000000
1000010000000000
0000000000000000
,
0000000000000000
0000000000000000
0000010000000000
0000000000010000
0000010000000000
0000000000000000
0000000000100000
0000000000000000
,
0000000000000100
0000000000000000
0000000001000000
0000000000000010
0000000001000000
0000000000000000
0000000010000101
0000000000000000
,
0000000000100000
0000000000000000
0000000000000100
0000000000100000
0000000000000100
0000000000000000
0000000010100001
0000000000000000
,
0000000000000100
0000000000000000
0000000000100000
0000000000000100
0000000000100000
0000000000000000
0000000000000010
0000000000000000
,
0000000000000000
0000000000000000
0000001000000000
0000000000000000
0000000000000000
0000000000000000
0000000000100000
0000010000000000
,
0000000001000000
0000001000000000
0000001001000000
0000000000000000
0000000000000000
0000000000000000
0000101000000000
0000000000000000
,
0000000000110000
0000000000000000
0000010000000000
0000000001000000
0000001000000000
0000000000000000
0000000001001000
0000000000000000
,
0001010000000000
0000000000000000
0000000000100000
0000001000000000
0000000001000000
0000000000000000
0010000000000000
0000000000000000
,
0100000000000000
0000001000000000
0100000000000000
0010010000000000
,
0000001100000000
0010010000000000
1100000000000000
0000010000000000
,
0000000000000000
0000000000000100
0000000000000000
0000000000100000
,
0000000000100000
0000000000100000
0000000000000000
0000000001000010
,
0000000001010000
0000000000100100
0000000000100001
0000000000000010
,
0000000000000100
0000000000000000
0000000000100000
0000000000000000
0000000001000000
0000000000000000
0000000000100000
0000000000100000
,
0000010000000000
0000010000000000
0000000000000100
0000000000100000
0000000000000010
0000000001000000
0000000011000000
0000000000000000
,
0000000000000011
0000000001000000
0000000001000000
0000000000000011
,
0000000011000000
0000000000000010
0000000000000010
0000000000100000
,
0000000000000000
0000000000000000
0010000000000000
0000000000000000
0000000000000000
0000000000000000
0010010000000000
0000000100000000
,
0010010000000000
1000000000000000
0000001000000000
0100000000000000
0000001000000000
0000000000000000
0000001100000000
0000000000000000
,
1100000000000000
0000001000000000
0000001000000000
1100000000000000
,
0000001100000000
0000000000000000
0100000000000000
0000000000000000
0100000000000000
0000000000000000
0000010000000000
0000001000000000
,
0000000001000000
0000000000000000
0100000000000000
0000001000000000
0100000000000000
0000000000000000
0001010000000000
0000000000000000
,
0000000000000000
0000000000010100
0000000000000000
0000000000100000
,
0000000000100100
0000000000000010
0000000001000010
0000000000100000
,
0000000010100000
0000000000000000
0000000000000100
0000000000000000
0000000000000101
0000000000000000
0000000001000000
0000000001000000
,
0000000000100000
0000001000000000
0000010000000000
0000010000000000
0100000000000000
0000000100000000
0100000000000000
0000001000000000
,
0000010000000000
0000000000100000
0001000000000000
0000000000010000
0001000000000000
0000000000000000
0000000000100000
0000000000000000
,
0000010000000000
0000000000000000
0000000001000000
0000000000100000
0000000001000000
0000000000000000
0000001000010000
0000000000000000
,
0000000001000000
0000001000000000
0000001001000000
0100000000000000
,
0000001000000000
0000000000000000
0100000000000000
0010000000000000
0100000000000000
0000000000000000
0001001000000000
0000000000000000
,
0000010000000000
0000000000000000
0000001000000000
0000000000000000
0000010000000000
0000000000000000
0000001000000000
0000010000000000
,
0010000000000000
0100000000000000
0000010000000000
0000001000000000
0010000000000000
0100000000000000
0000010000000000
0000001000000000
,
0000000001000000
0000000000100000
0000000000000100
0000000000100000
0000000000100100
0000000000000001
0000000000000000
0000000000000000
;
