#TITLE:Calcutta;
#SUBTITLE:;
#ARTIST:TaxiDr.;
#TITLETRANSLIT:;
#SUBTITLETRANSLIT:;
#ARTISTTRANSLIT:;
#GENRE:;
#CREDIT:locuuraa;
#LYRICSPATH:;
#MUSIC:Calcutta.ogg;
#OFFSET:-0.180;
#SAMPLESTART:11.940;
#SAMPLELENGTH:12.000;
#SELECTABLE:YES;
#BPMS:0.000=138.000;
#STOPS:;
#KEYSOUNDS:;
#BANNER:Calcutta.png;
#BACKGROUND:Calcutta.png;
#CDTITLE:../CDTitles/4DSS.png;
#BGCHANGES:-14.700=Calcutta.avi=1.000=0=0=1,
229.000=Calcutta.png=1.000=0=0=1,
99999=-nosongbg-=1.000=0=0=0
;
#NOTES:
     ds3ddx-single:
     Hard:
     Medium:
     5:
     :
00000000
00000000
00000000
00000000
,
00000000
00000000
00000000
00000000
,
00000000
10100000
00000011
11000000
,
00000011
00010000
10000000
00010000
,
00000001
10000000
00000001
10000000
,
00000001
00010000
10000000
00000001
,
00000000
10100000
00000101
01000000
,
00000011
00000000
01000000
00000000
00000101
00000000
01000000
00000010
,
01000000
00000010
10100000
00000000
00000010
00000000
10000000
00000000
,
00000001
10000000
00010000
00000101
,
11000000
00000010
01000000
00000011
,
11000000
00000100
00110100
00000010
,
01000000
00000100
00000100
00100000
,
00100000
00000010
00000010
01000000
,
01000000
00000011
11000000
00000101
,
10100000
00000000
00000010
00000000
01000000
00000000
00000100
01000000
,
00000100
00000100
00100000
00000000
00100000
00000000
00000010
00000000
,
00000010
01000000
01000000
00000100
,
00000100
00100000
00000100
10100000
,
00000101
11000000
00000011
01000010
,
00000000
00000100
00100010
00100000
,
01000100
00000000
00000010
00000000
00100100
00000000
01000000
00000010
,
00110000
00000000
00000010
00000010
01000000
01000000
00000100
00001010
,
00000000
01000000
00000010
10100101
,
00000100
00000110
00100000
01100000
,
00000010
00000000
01000000
00000000
00000100
00100000
01001000
00000000
,
00000010
01000000
00100000
00000100
,
00000101
00000000
01000000
00000010
,
11000011
01000000
00000010
10100000
,
00000000
00000001
10000000
00010100
,
00000000
00100000
00000100
00000010
,
01000000
00100000
00000100
10100101
,
00000000
01000000
00000010
01000000
,
00000000
00000010
01000000
00010100
,
00000000
01000000
01000000
00000011
,
00000000
00000010
00000010
11000000
,
00011000
00100000
00000100
10100000
,
00000000
00000000
00000010
00000000
00000010
00000000
00100000
00000010
,
00100010
00100000
00000100
00110100
,
00000000
00000000
00000100
00000000
00000100
00000000
01000000
00000010
,
00110000
00000010
01000000
00100100
,
00000000
00000000
01000000
00000000
00000010
00000000
01000000
00000010
,
11000000
00000010
00000010
00100100
,
00000000
00000100
00000010
01000000
,
00100000
00000101
10100000
00010100
,
00000000
00000010
01000000
00000100
,
00100100
11000000
00000000
00000000
,
00000000
00000000
00000000
00000000
,
00000000
00000010
11000000
00000000
00000000
00000000
00000000
00000000
,
00000000
00000000
00000000
00000000
,
00000000
00100000
00000101
00000000
00000000
00000000
00000000
00000000
;
