#TITLE:Bye;
#SUBTITLE:;
#ARTIST:Rain;
#TITLETRANSLIT:;
#SUBTITLETRANSLIT:;
#ARTISTTRANSLIT:;
#GENRE:;
#CREDIT:locuuraa;
#LYRICSPATH:;
#MUSIC:Bye.ogg;
#OFFSET:3.360;
#SAMPLESTART:11.160;
#SAMPLELENGTH:12.000;
#SELECTABLE:YES;
#BPMS:0.000=108.100;
#STOPS:;
#KEYSOUNDS:;
#BANNER:Bye.png;
#BACKGROUND:Bye.png;
#CDTITLE:../CDTitles/4DSS.png;
#BGCHANGES:-14.700=Bye.avi=1.000=0=0=1,
229.000=Bye.png=1.000=0=0=1,
99999=-nosongbg-=1.000=0=0=0
;
#NOTES:
     ds3ddx-single:
     Hard:
     Medium:
     4:
     :
00000000
00000000
00000000
00000000
,
00000000
00000000
00000000
00000000
,
00000000
00000000
00000000
00000000
,
00000000
00000000
00000000
00000000
,
00000000
00000000
00000000
00000000
,
00000000
00000000
00000000
00000000
,
00000000
00000000
00000000
00000000
,
00000000
00000000
00000000
00000000
,
00000000
00000000
00000000
00000000
,
00000000
00000000
00000000
00000000
00000000
00000000
00100000
00000100
,
10100000
00000100
10000000
00010000
,
00010000
00010000
00100100
00000101
,
00110000
00000000
00000000
10000000
00000101
00000000
00000010
00000000
,
00000000
00000000
00000100
00000000
00100000
10000000
00100100
00000000
,
00000000
00000010
01000000
00100000
,
00100000
00100000
00100100
00010000
,
00000001
00000010
11000001
01000100
,
01000000
00000100
00000100
00010000
,
00000000
00010000
00000000
10000000
,
00000000
10000000
00000000
00100000
,
01000000
01000000
00001000
01000000
,
00100000
00000100
00010000
00010100
,
00000000
00000000
00110000
00000000
00000000
00000000
01000000
01000000
,
00000011
00000000
10000000
00000100
,
00100000
00010000
00100000
00100000
,
01000000
01000000
10000001
11000000
,
00000011
00000000
11000000
00000011
,
11000000
00000000
00000011
01000000
,
00000000
00000100
00000000
00100000
,
00000000
00000000
00000100
00000000
00000000
00000000
00010000
00010000
,
00010000
00010000
00010000
00000000
10000001
00000000
00010000
00010000
,
00010000
00010000
00010000
00000000
10000001
00000000
00000100
00000000
,
00000000
00010000
00000000
00010000
,
00000000
00010000
00000000
00110000
,
00000000
00110000
00000000
01010000
,
00000000
01010000
00000000
00000100
,
00010000
00100000
00010000
00000000
,
00010000
00000000
00000000
00100000
,
00000000
00000100
00000000
00100000
,
00000100
00100000
00000000
00100000
,
00000100
00000010
01000000
00000100
,
00000100
00000000
00100000
00000000
00100000
00000000
00000101
00000001
,
00000001
00000001
00000001
00000001
00000001
00000001
00000001
00000001
,
00000001
00000001
00000001
00000001
00000001
00000001
00000001
00000001
,
00000001
00000001
00000001
00000001
00000001
00000001
00000001
00000001
;
#NOTES:
     ds3ddx-double:
     Club:
     Easy:
     3:
     :
0000000000000000
0000000000000000
0000000000000000
0000000000000000
,
0000000000000000
0000000000000000
0000000000000000
0000000000000000
,
0000000000000000
0000000000000000
0000000000000000
0000000000000000
,
0000000000000000
0000000000000000
0000000000000000
0000000000000000
,
0000000000000000
0000000000000000
0000000000000000
0000000000000000
,
0000000000000000
0000000000000000
0000000000000000
0000000000000000
,
0000000000000000
0000000000000000
0000000000000000
0000000000000000
,
0000000000000000
0000000000000000
0000000000000000
0000000000000000
,
0000000000000000
0000000000000000
0000000000000000
0000000000000000
,
0000000000000000
0000000000000000
0000000000000000
0000000000000000
0000000000000000
0000000000000000
0010000000000000
0000010000000000
,
1010000000000000
0000010000000000
1000000000000000
0001000000000000
,
0001000000000000
0001000000000000
0010010000000000
0000010000000000
,
0000000000100000
0000000000000000
0000000000000000
0000000010000000
0000000000000101
0000000000000000
0000000000000010
0000000000000000
,
0000000000000000
0000000000000000
0000000000000100
0000000000000000
0000000000100000
0000000010000000
0000000000100100
0000000000000000
,
0000000000000000
0000000000000010
0000000001000000
0000000000100000
,
0000010000000000
0000000001000000
0000001000000000
0000000000010000
,
0001000000000000
0000010000000000
0000001000000000
0100010000000000
,
0100000000000000
0000010000000000
0000010000000000
0001000000000000
,
0000000000000000
0001000000000000
0000000000000000
1000000000000000
,
0000000000000000
0000000010000000
0000000000000000
0000000000100000
,
0000000001000000
0000000001000000
0000000000001000
0000000000000010
,
0000000000100000
0000000000000100
0000000000010000
0000000000010100
,
0000000000000000
0000000000000000
0001010000000000
0000000000000000
0000000000000000
0000000000000000
0000000001000000
0000000001000000
,
0000001000000000
0000000000000000
0001000000000000
0000010000000000
,
0010000000000000
0001000000000000
0000010000000000
0000010000000000
,
0000000001000000
0000000001000000
0000000000010000
0000000000000011
,
0000000011000000
0000000000000000
0000000001000000
0000000000000010
,
0000000000010100
0000000000000000
0000000000100000
0000010000000000
,
0000000000000000
0000000001000000
0000000000000000
0000001000000000
,
0000000000000000
0000000000000000
0000010000000000
0000000000000000
0000000000000000
0000000000000000
0001000000000000
0001000000000000
,
0001000000000000
0001000000000000
0001000000000000
0000000000000000
1000000100000000
0000000000000000
0001000000000000
0001000000000000
,
0001000000000000
0001000000000000
0001000000000000
0000000000000000
1000000100000000
0000000000000000
0000010000000000
0000000000000000
,
0000000000000000
0000000000010000
0000000000000000
0000000000010000
,
0000000000000000
0000000000000010
0000000000000000
0000000001000000
,
0000000000000000
0000000000110000
0000000000000000
0000000001010000
,
0000000000000000
0000000000010010
0000000000000000
0000000000000100
,
0000000000010000
0000000000100000
0001000000000000
0000000000000000
,
0001000000000000
0000000000000000
0000000000000000
0010000000000000
,
0000000000000000
0000010000000000
0000000000000000
0010000000000000
,
0000010000000000
0000001000000000
0000000000000000
0000000000100000
,
0000000000000100
0000000000000010
0000000001000000
0000000000000100
,
0000000000000100
0000000000000000
0000000000100000
0000000000000000
0000000000100000
0000000000000000
0000000000000011
0000000000000001
,
0000000000000001
0000000000000001
0000000000000001
0000000000000001
0000000000000001
0000000000000001
0000000000000001
0000000000000001
,
0000000000000001
0000000000000001
0000000000000001
0000000000000001
0000000000000001
0000000000000001
0000000000000001
0000000000000001
,
0000000000000001
0000000000000001
0000000000000001
0000000000000001
0000000000000001
0000000000000001
0000000000000001
0000000000000001
;
