#TITLE:Blazing;
#SUBTITLE:;
#ARTIST:BanYa;
#TITLETRANSLIT:;
#SUBTITLETRANSLIT:;
#ARTISTTRANSLIT:;
#GENRE:;
#CREDIT:locuuraa;
#LYRICSPATH:;
#MUSIC:Blazing.ogg;
#OFFSET:0.780;
#SAMPLESTART:11.720;
#SAMPLELENGTH:12.000;
#SELECTABLE:YES;
#BPMS:0.000=157.990;
#STOPS:;
#KEYSOUNDS:;
#BANNER:Blazing.png;
#BACKGROUND:Blazing.png;
#CDTITLE:../CDTitles/4DSS.png;
#BGCHANGES:-14.700=Blazing.avi=1.000=0=0=1,
229.000=Blazing.png=1.000=0=0=1,
99999=-nosongbg-=1.000=0=0=0
;
#NOTES:
     ds3ddx-single:
     Hard:
     Medium:
     7:
     :
00000000
00000000
00000000
00000000
,
00000000
00000000
00000000
00000000
,
00000000
00000000
00000101
00000000
,
10100000
00000000
00010100
00000000
,
01000000
00000010
01000000
00000010
01000000
00000100
00100000
00000010
,
00000100
00100000
00000100
01000000
00100000
00000010
01000000
00000100
,
00100000
00000011
00000000
00000000
01000000
00000010
00000000
00100000
,
00000100
00000000
00000000
00000000
00000000
00000000
00000000
00000000
01000000
00000000
00000000
00000000
00000000
00000000
00000000
00000100
00000000
00000000
00000000
00000000
00000000
00000000
00000000
00000000
00000100
00000000
00000000
00000000
00000000
00000000
00000000
00000000
00000000
00000000
00000000
00000000
00000100
00000000
00000000
00000000
00000000
00000000
00000000
00000000
00000000
00100000
00000000
00000000
,
00000000
00000000
00000000
00000101
00000000
00000000
00000000
00000000
00000000
00000000
00000000
00000000
00000000
00000000
00000000
00000000
00000000
00000000
00000000
00000000
00000000
00000000
00000000
00000000
00100000
00000000
00000000
00000000
00000100
00000000
00000000
00000000
00100000
00000000
00000000
00000000
00000100
00000000
00000000
00000000
01000000
00000000
00000000
00000000
00000010
00000000
00000000
00000000
,
00100000
00000000
00000000
00000000
00000100
00000000
00000000
00000000
00000000
11000000
00000000
00000000
00000011
00000000
00000000
00000000
00000000
00000000
00000100
00000000
00000000
00000000
11000000
00000000
,
00000000
00000011
00000000
00000000
00000000
00000000
00000000
00000000
00100000
00000000
00000000
00000100
00000000
00000000
01000000
00000000
,
00000000
00000000
00000000
00000010
00000000
00000000
00000000
00000000
00000000
00000000
00000000
00000000
00000000
00000000
00000000
11000000
00000000
00000000
00000000
00000000
00000100
00000000
00000000
00000000
00000000
00000000
00000000
00000000
00000000
00000000
00000000
00000000
00000100
00000000
00000000
00000000
00000000
00000000
00000000
00000000
00000000
00000000
00000000
00000000
00000100
00000000
00000000
00000000
,
00000000
00000000
00000000
11000000
00000000
00000000
00000000
00000000
00000000
00000000
00000000
00000000
00000000
00000000
00000000
00000000
00000000
00000000
00000000
00000000
00000000
00000000
00000000
00000000
00000010
00000000
00000000
00000000
01000000
00000000
00000000
00000000
00000100
00000000
00000000
00000000
00100000
00000000
00000000
00000000
00000100
00000000
00000000
00000000
01000000
00000000
00000000
00000000
,
00000010
00000100
00100000
00000100
01000000
00000010
00000100
00100000
00000010
01000000
00100000
00000010
,
00000100
00100000
00000010
00000100
00100000
01000000
00000100
00000010
00100000
00000100
00100000
00000010
,
00000100
01000000
00100000
00000100
00000010
01000000
00100000
00000100
00100000
00000100
01000000
00000010
,
00000100
00100000
00000100
01000000
00000010
00100000
00000100
00000010
01000000
00100000
00000100
00000010
,
00000100
00100000
01000000
00000100
00100000
01000000
00000100
00100000
00000010
00000100
01000000
00000010
,
00100000
00000100
00100000
01000000
00000010
00000100
00100000
01000000
00000010
00000100
01000000
00100000
,
00000010
00100000
00000010
00000100
01000000
00000100
00100000
00000100
00000010
01000000
00000100
00100000
,
00000010
00100000
00000100
00100000
00000010
00000000
11000000
00000000
00000100
00000000
01000000
00000000
,
00000000
00000000
00000000
00000000
00000010
00000000
00000000
00000000
00000000
00000000
00000000
00000000
01000000
00000000
00000000
00000000
00000000
00000000
00000000
00000000
00000100
00000000
00000000
00000000
00000000
00000000
00000000
00000000
00000000
00000000
00100000
00000000
00000000
00000000
00000000
00000000
00000000
00000000
00000000
00000100
00000000
00000000
00000000
00000000
00000000
00000000
00000000
00000000
,
11000101
00000000
00000000
00000000
00000000
00000000
00000100
00100000
00000010
01000000
00100000
00000100
,
00100000
00000010
00000100
01000000
00100000
00000010
00100000
00000010
01000000
00000100
00100000
00000010
,
01000000
00000100
00100000
00000010
01000000
00000100
00100000
00000010
00100000
01000000
00000100
00000010
,
01000000
00100000
00000100
01000000
00000010
00100000
01000000
00100000
01000000
00000100
00000010
00000100
,
00000010
00100000
00000100
01000000
00000010
00100000
00000100
01000000
00000100
00100000
00000010
01000000
,
00100000
00000100
00000010
00100000
00000100
01000000
00000010
00100000
00000100
01000000
00000100
00000010
,
00100000
00000100
01000000
00100000
00000100
00000010
00000100
01000000
00100000
00000100
00000010
00000100
,
00100000
00000100
00000010
01000000
00100000
00000100
01000000
00000010
00000100
00100000
00000010
01000000
,
00000100
00100000
01000000
00000010
00000100
00100000
00000100
00000010
00100000
00000100
01000000
00000010
,
00000100
00100000
00000010
00000100
01000000
00100000
00000100
00000010
01000000
00100000
00000100
00000010
,
00100000
00000100
00100000
01000000
00000100
00000010
01000000
00100000
00000010
00000100
00100000
01000000
,
00000010
01000000
00000100
00100000
00000010
01000000
00000100
00100000
00000010
01000000
00000100
00000010
,
00100000
00000100
00100000
00000010
01000000
00000010
00100000
00000100
01000000
00000010
00000100
00100000
,
01000000
00000010
01000000
00000100
00100000
00000100
00000010
01000000
00000100
01000000
00100000
00000100
,
01000000
00000010
00100000
00000100
00000010
00100000
01000000
00000100
00100000
00000010
00100000
01000000
,
00000010
00000100
00100000
00000100
00000010
00100000
01000000
00000100
00100000
00000010
00000100
00100000
,
00000100
00000010
01000000
00100000
00000100
00100000
00000010
00000100
01000000
00000010
01000000
00100000
,
00000100
00000010
00100000
00000100
01000000
00000010
00100000
00000100
00100000
00000010
00000100
01000000
,
00100000
00000100
00000010
01000000
00000100
00000000
01000000
00000000
00000010
00000000
01000000
00000000
,
00000000
00000101
00000000
10100000
00000000
00000100
00000000
00100000
00000000
00100000
00000010
00000000
,
11000011
00000000
00000000
00000000
00000000
00000000
00000000
00100000
01000000
00000100
00100000
00000010
,
01000000
00000100
00100000
00000010
00000100
01000000
00000010
00000010
00100000
00000100
00000100
01000000
,
00000010
00100000
00000100
01000000
01000000
00000010
00000010
00000100
00100000
01000000
00000100
00000010
,
00100000
01000000
00000100
00000100
00100000
00000010
01000000
01000000
00000100
01000000
00000100
00100000
,
00000010
00000010
01000000
00000100
00100000
00100000
00000100
00000100
01000000
00000010
00100000
00000100
,
01000000
00000010
00100000
00000010
00100000
00000100
01000000
00000010
00100000
00100000
00000010
00000100
,
00100000
00000100
00000100
01000000
00000010
00000100
01000000
00000010
00100000
00000100
01000000
01000000
,
00000010
00000010
00000100
00100000
00100000
00000010
01000000
00000100
01000000
00000100
00000010
00100000
,
00000100
00100000
00000010
00100000
01000000
00000010
00000100
01000000
00000010
00000010
01000000
00000100
,
00100000
00000010
00000010
01000000
00000100
00000100
01000000
00000010
01000000
00000100
00100000
00000010
,
01000000
01000000
00000100
00100000
00100000
00000100
00000010
01000000
00100000
00000010
00000100
00100000
,
00000100
01000000
00000010
00100000
00000010
00000100
01000000
00000010
00100000
00000010
00000100
01000000
,
00000010
00100000
00000100
00100000
01000000
00000010
00000100
00100000
01000000
00000100
00100000
00000010
,
00000100
01000000
00000010
00100000
00000100
01000000
00000010
00000100
00100000
00000010
01000000
00000100
,
00100000
00000100
00000010
01000000
00100000
00000010
01000000
00000100
00100000
00000010
00100000
00000100
,
01000000
00100000
00000010
00000100
00100000
00000010
01000000
00000010
00000100
00100000
00000010
00000100
,
00100000
00000010
01000000
00100000
00000100
00100000
00000010
11000000
00000000
00000000
00000000
00000000
,
10100000
00000000
00000000
00000000
00000000
00000000
00000000
00000000
00010100
00000000
00000000
00000000
00000000
00000000
00000000
00000000
00100000
00000000
00000000
00000000
00000000
00000000
00000000
00000000
00000000
00000000
00000000
00100000
00000000
00000000
00000000
00000000
00000000
00000000
00000000
00000000
00000000
00000000
00000000
00000100
00000001
00000000
01000000
00000000
00000000
00000000
00000000
00000000
,
00000000
00000000
00000000
00000010
00000000
00000000
00000010
00000000
00100000
00000000
00000000
00000000
00000101
00000000
00000000
00000000
00000000
00000000
00000000
00000000
00000000
00000000
00000000
00000000
,
00100000
00000000
00100001
00000000
00000010
00000000
01000000
00000000
00000000
00000100
00100000
00000000
,
00000010
00000000
00000010
00000000
00000000
00000100
01000000
00000101
00000000
00000000
00000000
00000000
,
00000000
00000000
00000000
00000000
00100000
00000000
00000000
00000000
00000000
00000000
00000000
00000000
00000100
00000000
00000000
00000000
00000000
00000000
00000000
00000000
00000000
00100000
00000000
00000000
00000000
00000000
00000000
00000100
00000000
00000000
00000000
00000000
00000000
00000000
00000000
00000000
00000000
00000000
00000000
00000000
00000000
00000000
00000000
00000000
00000000
00000000
00000000
00000000
,
00100101
00000000
00000000
00000000
;
#NOTES:
     ds3ddx-double:
     Club:
     Easy:
     7:
     :
0000000000000000
0000000000000000
0000000000000000
0000000000000000
,
0000000000000000
0000000000000000
0000000000000000
0000000000000000
,
0000000000000000
0000000000000000
0001010000000000
0000000000000000
,
0000000000110000
0000000000000000
0001010000000000
0000000000000000
,
0100000000000000
0000001000000000
0100000000000000
0000001000000000
0100000000000000
0000010000000000
0010000000000000
0000001000000000
,
0000010000000000
0010000000000000
0000010000000000
0100000000000000
0010000000000000
0000001000000000
0100000000000000
0000010000000000
,
0010000000000000
0000001100000000
0000000000000000
0000000000000000
0100000000000000
0000001000000000
0000000000000000
0000010000000000
,
0000000000100000
0000000000000000
0000000000000000
0000000000000000
0000000000000000
0000000000000000
0000000000000000
0000000000000000
0000000001000000
0000000000000000
0000000000000000
0000000000000000
0000000000000000
0000000000000000
0000000000000000
0000000000000100
0000000000000000
0000000000000000
0000000000000000
0000000000000000
0000000000000000
0000000000000000
0000000000000000
0000000000000000
0000000000000100
0000000000000000
0000000000000000
0000000000000000
0000000000000000
0000000000000000
0000000000000000
0000000000000000
0000000000000000
0000000000000000
0000000000000000
0000000000000000
0000000000000100
0000000000000000
0000000000000000
0000000000000000
0000000000000000
0000000000000000
0000000000000000
0000000000000000
0000000000000000
0000000000100000
0000000000000000
0000000000000000
,
0000000000000000
0000000000000000
0000000000000000
0000000000000101
0000000000000000
0000000000000000
0000000000000000
0000000000000000
0000000000000000
0000000000000000
0000000000000000
0000000000000000
0000000000000000
0000000000000000
0000000000000000
0000000000000000
0000000000000000
0000000000000000
0000000000000000
0000000000000000
0000000000000000
0000000000000000
0000000000000000
0000000000000000
0000010000000000
0000000000000000
0000000000000000
0000000000000000
0000000000100000
0000000000000000
0000000000000000
0000000000000000
0000010000000000
0000000000000000
0000000000000000
0000000000000000
0000000000100000
0000000000000000
0000000000000000
0000000000000000
0000000001000000
0000000000000000
0000000000000000
0000000000000000
0000001000000000
0000000000000000
0000000000000000
0000000000000000
,
0000010000000000
0000000000000000
0000000000000000
0000000000000000
0010000000000000
0000000000000000
0000000000000000
0000000000000000
0000000000000000
1100000000000000
0000000000000000
0000000000000000
0000001100000000
0000000000000000
0000000000000000
0000000000000000
0000000000000000
0000000000000000
0000010000000000
0000000000000000
0000000000000000
0000000000000000
1100000000000000
0000000000000000
,
0000000000000000
0000001100000000
0000000000000000
0000000000000000
0000000000000000
0000000000000000
0000000000000000
0000000000000000
0010000000000000
0000000000000000
0000000000000000
0000001000000000
0000000000000000
0000000000000000
0000000000100000
0000000000000000
,
0000000000000000
0000000000000000
0000000000000000
0000000000000011
0000000000000000
0000000000000000
0000000000000000
0000000000000000
0000000000000000
0000000000000000
0000000000000000
0000000000000000
0000000011000000
0000000000000000
0000000000000000
0000000000000000
0000000000000000
0000000000000000
0000000000000000
0000000000000000
0000000000000100
0000000000000000
0000000000000000
0000000000000000
0000000000000000
0000000000000000
0000000000000000
0000000000000000
0000000000000000
0000000000000000
0000000000000000
0000000000000000
0000000000100000
0000000000000000
0000000000000000
0000000000000000
0000000000000000
0000000000000000
0000000000000000
0000000000000000
0000000000000000
0000000000000000
0000000000000000
0000000000000000
0000000000000100
0000000000000000
0000000000000000
0000000000000000
,
0000000000000000
0000000000000000
0000000000000000
0000000011000000
0000000000000000
0000000000000000
0000000000000000
0000000000000000
0000000000000000
0000000000000000
0000000000000000
0000000000000000
0000000000000000
0000000000000000
0000000000000000
0000000000000000
0000000000000000
0000000000000000
0000000000000000
0000000000000000
0000000000000000
0000000000000000
0000000000000000
0000000000000000
0000001000000000
0000000000000000
0000000000000000
0000000000000000
0000000001000000
0000000000000000
0000000000000000
0000000000000000
0000001000000000
0000000000000000
0000000000000000
0000000000000000
0000000001000000
0000000000000000
0000000000000000
0000000000000000
0000010000000000
0000000000000000
0000000000000000
0000000000000000
0000000000100000
0000000000000000
0000000000000000
0000000000000000
,
0000010000000000
0000000000000000
0000000001000000
0000000000000000
0000010000000000
0000000000000000
0000001000000000
0000000000000000
0000000000000000
0010000000000000
0000000000000000
0000000000000000
0000001000000000
0000000000000000
0000000000000000
0010000000000000
0000000000000000
0000000000000000
0000010000000000
0000000000000000
0000000000000000
0100000000000000
0000000000000000
0000000000000000
,
0000010000000000
0100000000000000
0010000000000000
0000010000000000
0100000000000000
0000010000000000
0010000000000000
0000001000000000
,
0000010000000000
0100000000000000
0010000000000000
0000010000000000
0100000000000000
0000010000000000
0100000000000000
0000010000000000
,
0010000000000000
0000001000000000
0100000000000000
0000001000000000
0000010000000000
0000000000100000
0000000001000000
0000000000000010
,
0000000000000100
0000000000000010
0000000001000000
0000000000000100
0000000000100000
0000000001000000
0000001000000000
0000000000100000
,
0000001000000000
0000000000100000
0000000001000000
0000010000000000
0000001000000000
0100000000000000
0000010000000000
0010000000000000
,
0100000000000000
0000010000000000
0010000000000000
0000010000000000
0010000000000000
0000001000000000
0100000000000000
0000001000000000
,
0010000000000000
0000000000000000
0000000000000000
0000001000000000
0000000000000000
0000000000000000
0010000000000000
0000000000000000
0000001000000000
0000000000000000
0000000000000000
0000000000000000
1100000000000000
0000000000000000
0000000000000000
0000000000000000
0000010000000000
0000000000000000
0000000000000000
0000000000000000
0100000000000000
0000000000000000
0000000000000000
0000000000000000
,
0000000000000000
0000000000000000
0000000000000000
0000000000000000
0000001000000000
0000000000000000
0000000000000000
0000000000000000
0000000000000000
0000000000000000
0000000000000000
0000000000000000
0000000000100000
0000000000000000
0000000000000000
0000000000000000
0000000000000000
0000000000000000
0000000000000000
0000000000000000
0000010000000000
0000000000000000
0000000000000000
0000000000000000
0000000000000000
0000000000000000
0000000000000000
0000000000000000
0000000000000000
0000000000000000
0000000000100000
0000000000000000
0000000000000000
0000000000000000
0000000000000000
0000000000000000
0000000000000000
0000000000000000
0000000000000000
0000010000000000
0000000000000000
0000000000000000
0000000000000000
0000000000000000
0000000000000000
0000000000000000
0000000000000000
0000000000000000
,
0000001000100000
0000000000000000
0000000000000000
0000000000000000
0000000000000000
0000000000000000
0000010000000000
0010000000000000
0000001000000000
0100000000000000
0010000000000000
0000010000000000
,
0010000000000000
0000001000000000
0000010000000000
0100000000000000
0010000000000000
0000001000000000
0010000000000000
0000001000000000
0100000000000000
0000010000000000
0010000000000000
0000001000000000
,
0100000000000000
0000000000000000
0000010000000000
0000000000000000
0010000000000000
0000000000000000
0000001000000000
0000000000000000
0100000000000000
0000000000000000
0000010000000000
0000000000000000
0010000000000000
0000000000000000
0000000000000000
0000001000000000
0000000000000000
0000000000000000
0000000000100000
0000000000000000
0000000000000000
0000000001000000
0000000000000000
0000000000000000
,
0000000000000100
0000000000000000
0000000000000000
0000000000100000
0000000000000000
0000000000000000
0000000000000010
0000000000000000
0000000000100000
0000000000000000
0000000000000010
0000000000000000
0000000000000100
0000000000000000
0000000001000000
0000000000000000
0000000000000100
0000000000000000
0000000000100000
0000000000000000
0000000001000000
0000000000000000
0000000000000010
0000000000000000
,
0000000000000100
0000000000100000
0000000000000010
0000000001000000
0000000000000010
0000000000100000
0000000000000100
0000000001000000
0000000000000100
0000000000100000
0000000000000010
0000000001000000
,
0000000000100000
0000000000000100
0000000000000010
0000000000100000
0000000001000000
0000000000000010
0000000001000000
0000000000100000
0000010000000000
0000001000000000
0100000000000000
0000001000000000
,
0010000000000000
0000010000000000
0100000000000000
0010000000000000
0000010000000000
0000001000000000
0000010000000000
0100000000000000
0010000000000000
0000010000000000
0000001000000000
0000010000000000
,
0010000000000000
0000010000000000
0000001000000000
0100000000000000
0010000000000000
0000010000000000
0000000000000000
0000001000000000
0000000000100000
0000000001000000
0000001000000000
0000000000000000
,
0000000001000000
0000010000000000
0000000000100000
0000010000000000
0000000000100000
0000001000000000
0000000001000000
0000000000100000
0000000001000000
0000000000000010
0000000000000000
0000000000000100
,
0000000000100000
0000000000000010
0000000000000100
0000000001000000
0000000000100000
0000000000000100
0000000000000010
0000000000100000
0000000000000100
0000000001000000
0000000000100000
0000000000000010
,
0000000000100000
0000000001000000
0000000000000100
0000000000100000
0000000000000010
0000000001000000
0000000000100000
0000010000000000
0000001000000000
0000010000000000
0010000000000000
0100000000000000
,
0000001000000000
0100000000000000
0000010000000000
0010000000000000
0000001000000000
0100000000000000
0000010000000000
0010000000000000
0000001000000000
0100000000000000
0000010000000000
0000001000000000
,
0010000000000000
0000010000000000
0010000000000000
0000001000000000
0100000000000000
0000001000000000
0010000000000000
0000010000000000
0100000000000000
0000001000000000
0000010000000000
0010000000000000
,
0000001000000000
0000000000100000
0000000001000000
0000010000000000
0000001000000000
0000000001000000
0000001000000000
0000000000100000
0000010000000000
0000000000100000
0000000001000000
0000000000000010
,
0000000001000000
0000000000100000
0000000000000100
0000000001000000
0000000000000010
0000000000000100
0000000000100000
0000000000000010
0000000000100000
0000000000000100
0000000001000000
0000000000000010
,
0000000000100000
0000000000000100
0000000001000000
0000000000000010
0000000000000100
0000000000100000
0000000000000010
0000000001000000
0000000000000100
0000000000100000
0000000000000010
0000000000100000
,
0000000000000010
0000000000000100
0000000000100000
0000000001000000
0000010000000000
0000000000000000
0000001000000000
0010000000000000
0000010000000000
0100000000000000
0000010000000000
0010000000000000
,
0000010000000000
0000001000000000
0010000000000000
0000010000000000
0100000000000000
0000001000000000
0010000000000000
0000010000000000
0010000000000000
0000001000000000
0000010000000000
0100000000000000
,
0010000000000000
0000010000000000
0000001000000000
0100000000000000
0000010000000000
0000000000000000
0100000000000000
0000000000000000
0000001000000000
0000000000000000
0100000000000000
0000000000000000
,
0000000000000000
0000010100000000
0000000000000000
1010000000000000
0000000000000000
0000001000000000
0000000000000000
0000010000000000
0000000000000000
0000000000100000
0000010000000000
0000000000000000
,
0000010000100000
0000000000000000
0000000000000000
0000000000000000
0000000000000000
0000000000000000
0000001000000000
0000000001000000
0000001000000000
0000000000100000
0000000001000000
0000000000000010
,
0000000000000100
0000000000100000
0000000000000010
0000000000100000
0000000000000100
0000000001000000
0000000000100000
0000000000000100
0000000000000010
0000000001000000
0000000000000100
0000000000100000
,
0000000001000000
0000000000000100
0000000000000010
0000000000100000
0000000001000000
0000000000000100
0000000000000010
0000000001000000
0000000000100000
0000010000000000
0000001000000000
0100000000000000
,
0000010000000000
0010000000000000
0000000000000000
0000010000000000
0010000000000000
0100000000000000
0000010000000000
0010000000000000
0000001000000000
0000010000000000
0010000000000000
0000001000000000
,
0100000000000000
0000001000000000
0000010000000000
0000000001000000
0000000000100000
0000001000000000
0000000001000000
0000010000000000
0000000000100000
0000001000000000
0000000001000000
0000010000000000
,
0000001000000000
0000000000100000
0000000001000000
0000000000000010
0000000001000000
0000000000000010
0000000000000100
0000000000100000
0000000000000100
0000000001000000
0000000000100000
0000000000000010
,
0000000000000100
0000000001000000
0000000000000100
0000000000100000
0000000000000010
0000000000100000
0000000000000100
0000000001000000
0000000000100000
0000010000000000
0000001000000000
0010000000000000
,
0000010000000000
0100000000000000
0000001000000000
0000010000000000
0000000000100000
0000001000000000
0000010000000000
0000000001000000
0000001000000000
0000000000100000
0000010000000000
0000001000000000
,
0010000000000000
0000010000000000
0100000000000000
0000001000000000
0000010000000000
0010000000000000
0000010000000000
0100000000000000
0000001000000000
0010000000000000
0100000000000000
0000001000000000
,
0000010000000000
0000000000100000
0000000001000000
0000000000000010
0000000000000100
0000000000000010
0000000001000000
0000000000100000
0000010000000000
0000001000000000
0100000000000000
0000010000000000
,
0100000000000000
0010000000000000
0000001000000000
0010000000000000
0000010000000000
0100000000000000
0000001000000000
0100000000000000
0010000000000000
0000001000000000
0000010000000000
0010000000000000
,
0000010000000000
0100000000000000
0000001000000000
0010000000000000
0000001000000000
0000010000000000
0000000000100000
0000000001000000
0000000000000010
0000000000000100
0000000001000000
0000000000000010
,
0000000000000100
0000000000100000
0000000000000010
0000000001000000
0000000000100000
0000010000000000
0000001000000000
0000000000100000
0000000001000000
0000001000000000
0000000000100000
0000001000000000
,
0000000001000000
0000010000000000
0000000000100000
0000000001000000
0000000000000010
0000000000000100
0000000000000010
0000000001000000
0000000000100000
0000000000000100
0000000000000010
0000000000100000
,
0000000001000000
0000000000100000
0000000001000000
0000010000000000
0000001000000000
0000010000000000
0000001000000000
0000000000100000
0000010000000000
0000000000100000
0000010000000000
0000000000000000
,
0000001000000000
0000000001000000
0000001000000000
0000000001000000
0000000000000100
0000000000100000
0000000000000010
0000000001000000
0000000000100000
0000010000000000
0000001000000000
0100000000000000
,
0000010000000000
0000001000000000
0100000000000000
0010000000000000
0000010000000000
0010000000000000
0000001000000000
1100000000000000
0000000000000000
0000000000000000
0000000000000000
0000000000000000
,
1010000000000000
0000000000000000
0000000000000000
0000000000000000
0000000000000000
0000000000000000
0000000000000000
0000000000000000
0001010000000000
0000000000000000
0000000000000000
0000000000000000
0000000000000000
0000000000000000
0000000000000000
0000000000000000
0010000000000000
0000000000000000
0000000000000000
0000000000000000
0000000000000000
0000000000000000
0000000000000000
0000000000000000
0000000000000000
0000000000000000
0000000000000000
0000010000000000
0000000000000000
0000000000000000
0000000000000000
0000000000000000
0000000000000000
0000000000000000
0000000000000000
0000000000000000
0000000000000000
0000000000000000
0000000000000000
0000001000000000
0000000000000000
0000000000000000
0000000001000000
0000000000000000
0000000000000000
0000000000000000
0000000000000000
0000000000000000
,
0000000000000000
0000000000000000
0000000000000000
0000000000100000
0000000000000000
0000000000000000
0000000000100000
0000000000000000
0000000000000100
0000000000000000
0000000000000000
0000000000000000
0000000000000101
0000000000000000
0000000000000000
0000000000000000
0000000000000000
0000000000000000
0000000000000000
0000000000000000
0000000000000000
0000000000000000
0000000000000000
0000000000000000
,
0000000000100000
0000000000000000
0000000001000000
0000000000000000
0000010000000000
0000000000000000
0000001000000000
0000000000000000
0000000000000000
0010000000000000
0000010000000000
0000000000000000
,
0100000000000000
0000000000000000
0100000000000000
0000000000000000
0000000000000000
0000010000000000
0100000000000000
0000010100000000
0000000000000000
0000000000000000
0000000000000000
0000000000000000
,
0000000000000000
0000000000000000
0000000000000000
0000000000000000
0010000000000000
0000000000000000
0000000000000000
0000000000000000
0000000000000000
0000000000000000
0000000000000000
0000000000000000
0000010000000000
0000000000000000
0000000000000000
0000000000000000
0000000000000000
0000000000000000
0000000000000000
0000000000000000
0000000000000000
0010000000000000
0000000000000000
0000000000000000
0000000000000000
0000000000000000
0000000000000000
0000010000000000
0000000000000000
0000000000000000
0000000000000000
0000000000000000
0000000000000000
0000000000000000
0000000000000000
0000000000000000
0000000000000000
0000000000000000
0000000000000000
0000000000000000
0000000000000000
0000000000000000
0000000000000000
0000000000000000
0000000000000000
0000000000000000
0000000000000000
0000000000000000
,
0010010100000000
0000000000000000
0000000000000000
0000000000000000
;
