#TITLE:Baila Baila;
#SUBTITLE:;
#ARTIST:Baby V.O.X.;
#TITLETRANSLIT:;
#SUBTITLETRANSLIT:;
#ARTISTTRANSLIT:;
#GENRE:;
#CREDIT:locuuraa;
#LYRICSPATH:;
#MUSIC:Baila Baila.ogg;
#OFFSET:2.040;
#SAMPLESTART:11.180;
#SAMPLELENGTH:12.000;
#SELECTABLE:YES;
#BPMS:0.000=126.830;
#STOPS:;
#KEYSOUNDS:;
#BANNER:Baila Baila.png;
#BACKGROUND:Baila Baila.png;
#CDTITLE:../CDTitles/4DSS.png;
#BGCHANGES:-14.700=Baila Baila.avi=1.000=0=0=1,
229.000=Baila Baila.png=1.000=0=0=1,
99999=-nosongbg-=1.000=0=0=0
;
#NOTES:
     ds3ddx-single:
     Hard:
     Medium:
     5:
     :
00000000
00000000
00000000
00000000
,
00000000
00000000
00000000
00000000
,
00000000
00000000
00000100
00000000
,
00010000
00000000
00010010
00000000
,
00010010
00000000
00000100
00000000
,
00010000
00000000
00010010
00000000
,
00010100
00100000
00010100
00000100
,
00000010
00000010
01000000
01000000
,
00000100
00000000
00100000
00000000
00000011
10000000
00000001
10000000
,
00010000
00010000
00010000
00010000
00000010
00000000
00000000
00000000
,
00010000
10100101
10000000
00000000
,
01000000
00000000
00010100
01001000
,
00000100
00000100
10000100
00000000
,
00100001
00000000
10100000
00000101
,
00011000
10000001
00100001
00000001
,
00000001
10000001
00010000
10000001
,
00000100
00100000
00010000
00000000
,
00010000
00000001
00000000
00000000
10100001
00000000
00000000
00000000
,
00110000
00010100
00100000
00000000
,
00000000
00000000
00000000
00000000
,
00000000
00000000
00000000
00000000
,
00100000
01000000
00000010
00000100
,
00000100
00000100
10100001
00010100
,
10100101
00010000
00010000
00000000
,
00010000
00000000
00000100
00100000
,
00010000
00000000
00000010
00000000
10100000
10000000
00010000
00010000
,
10000000
00000000
10000001
00000100
,
00000010
01000000
00100000
00100000
,
00010100
00000000
10000001
00100000
,
00000100
00000010
01000000
00000001
,
00000001
00000000
01000010
00000010
,
00000000
01000000
00000010
00000100
,
00100000
00000100
00000100
00100000
,
00000100
00100000
00000000
00000000
,
10000001
00000000
00000010
00000000
,
00000010
00000000
00000100
00100000
,
01000000
01000000
00000010
00000100
,
00000100
00000100
10000001
00010000
,
00000000
00000000
00010010
00000010
,
01010000
01000000
00010010
00000010
,
01010000
01000000
00000100
00000100
,
00100000
00100000
10000000
00000000
,
00100000
01000000
10000001
00000000
,
00000000
00000000
00000011
00000010
,
00010010
01000000
01000000
01000000
,
01000000
01000000
00100000
00100000
,
00100100
00000000
10100000
00000000
,
10000001
00000000
00110000
00000000
,
00000000
00000000
00000100
10000001
,
00100000
00100000
00000010
10000001
,
00100000
00100000
00000100
00100000
,
00000100
00100000
00010100
00000000
,
00110000
00000000
00000100
00100000
,
00000100
00100000
00010100
00000000
,
00110000
00000000
10000000
00000001
,
10000000
00000001
11000001
00000100
,
10000011
00100000
00000100
00100000
,
00000100
00100000
00000000
00000000
,
00010000
00000000
10000000
00000000
,
01000000
00000000
00010100
01001000
,
00000100
00000100
10000100
00000000
,
00100001
00000000
10100000
00000101
,
00011000
10000001
00100001
00000001
,
00000001
10000001
00010000
10000001
,
00000100
00100000
00010000
00000000
,
00010000
00000001
00000000
00000000
10100001
00000000
00000000
00000000
,
00110000
00010100
00100000
00000000
;
#NOTES:
     ds3ddx-double:
     Club:
     Easy:
     5:
     :
0000000000000000
0000000000000000
0000000000000000
0000000000000000
,
0000000000000000
0000000000000000
0000000000000000
0000000000000000
,
0000000000000000
0000000000000000
0000000000000000
0000000000000000
,
0000000000000000
0000010000000000
0000000000000000
0001000000000000
,
0000000000000000
0001001000000000
0000000000000000
0001001000000000
,
0000000000000000
0000010000000000
0000000000000000
0000000000100000
,
0000000000000000
0000000011000000
0000000000000000
0000000000010100
,
0000000000100000
0000000000010100
0000000000000100
0000000000000010
,
0000000000000010
0000000001000000
0000000000100000
0000010000000000
,
0000001000000000
0000000000000000
0100000100000000
1000000000000000
0000000100000000
1000000000000000
0001000000000000
0001000000000000
,
0001000000000000
0001000000000000
0000001000000000
0000000000000000
0000000000000000
0000000000000000
0001000000000000
0000000000000000
,
1010010100000000
1000000000000000
0000000000000000
0100000000000000
,
0000000000000000
0001010000000000
0100100000000000
0000010000000000
,
0000010000000000
1000010000000000
0000000000000000
0010000100000000
,
0000000000000000
0000001000000000
0000010000000000
0000000000100000
,
0000000001000000
0000000000000011
0000000010000000
0000000000000001
,
0000000010000001
0000000000010000
0000000010000001
0000000000000100
,
0000000000100000
0000000000000000
0000000000010000
0000000000000000
0000000000000000
0000000000000000
0000000000010000
0000000000000001
,
0000000000000000
0000000010100001
0000000000000000
0001010000000000
,
0000000000110000
0000001000000000
0000000000000000
0000000000000000
,
0000000000000000
0000000000000000
0000000000000000
0000000000000000
,
0000000000000000
0000000000000000
0000000000000000
0010000000000000
,
0100000000000000
0000001000000000
0000010000000000
0000010000000000
,
0000010000000000
1010000100000000
0001010000000000
1010010100000000
,
0001000000000000
0001000000000000
0000000000000000
0000000000010000
,
0000000000000000
0000000000000100
0000000001100000
0000000000010000
,
0000000000000010
0000000000000000
0000000010100000
0000000010000000
0000000000010000
0000000000010000
0000000000000000
0000000000000000
,
0000000000000000
0000000010000001
0000000000000100
0000000000000010
,
0000000001000000
0000000000100000
0000000000100000
0000000000000100
,
0000000000000000
0000000010000001
0000000000100000
0000010000000000
,
0000001000000000
0100000000000000
0000000100000000
0000000100000000
,
0000000000000000
0100001000000000
0000001000000000
0000000000000000
,
0100000000000000
0000001000000000
0000000000100000
0000000001000000
,
0000000000000010
0000000000000010
0000000000100000
0000000000000100
,
0000000000100000
0000000000000000
0000000000000000
1000000100000000
,
0000000000000000
0000001000000000
0000000000000000
0000001000000000
,
0000000000000000
0000010000000000
0010000000000000
0100000000000000
,
0100000000000000
0000001000000000
0000010000000000
0000010000100000
,
0000000001000000
0000001001000000
0001000000000000
0000000000000000
,
0000000000000000
0000000000010000
0000000000000100
0000000001010000
,
0000000001000000
0000000000010010
0000000000000010
0000000001010000
,
0000000001000000
0000010000000000
0000010000000000
0000000000100000
,
0000000000100000
0001000000000000
0000000000000000
0000000000010000
,
0000000001000000
0000000010000001
0000000000000000
0000000000000000
,
0000000000000000
0000000000000011
0000000000000010
0000000000010010
,
0000000001000000
0000000000000010
0000000001000000
0000000000100000
,
0000010000000000
0000001000000000
0000001000000000
0010010000000000
,
0000000000000000
1010000000000000
0000000000000000
1000000100000000
,
0000000000000000
0011000000000000
0000000000000000
0000000000000000
,
0000000000000000
0000000000000100
0000000010000001
0000000000100000
,
0000000000100000
0000000000000010
0000000010000001
0000000000100000
,
0000000000100000
0000000000000100
0000000000100000
0000000000000100
,
0000000000100000
0000000000010100
0000000000000000
0000000000110000
,
0000000000000000
0000000000000010
0000000001000000
0000000000000010
,
0000000001000000
0001010000000000
0000000000000000
0000000001000000
,
0000000000000000
1000000000000000
0000000100000000
1000000000000000
,
0000000100000000
1100000100000000
0000010000000000
1000001100000000
,
0010000000000000
0000010000000000
0010000000000000
0000010000000000
,
0010000000000000
0000000000000000
0000000000000000
0000000000010000
,
0000000000000000
0000000010000000
0000000000000000
0000000001000000
,
0000000000000000
0000000000010100
0000000001001000
0000000000000100
,
0000000000000100
0000000010000100
0000000000000000
0000000000100001
,
0000000000000000
0000010000000000
0000000000100000
0000001000000000
,
0000000000100000
0001010000000000
0000000100000000
0000000100000000
,
1000000100000000
0001000000000000
1000000100000000
0000010000000000
,
0010000000000000
0000000000000000
0001000000000000
0000000000000000
0000000000000000
0000000000000000
0000001000000000
0000000001000000
,
0000000000000000
0000000000100000
0000000000000000
0000000000010100
,
0000000000010100
0000000000100000
0000000000000000
0000000000000000
;
#NOTES:
     ds3ddx-single:
     Easy:
     Easy:
     4:
     :
00000000
00000000
00000000
00000000
,
00000000
00000000
00000000
00000000
,
00000000
00000000
00000000
00000000
,
00000000
00000100
00000000
00010000
,
00000000
00010000
00000000
00010000
,
00000000
00000100
00000000
00010000
,
00000000
00010000
00000000
00000000
,
00100000
00000000
00000100
00000000
,
00000010
01000000
00000000
00000100
,
00000000
00000001
00000000
00010000
,
00000000
00000010
00000000
00010000
,
00000000
10000000
00000000
01000000
,
00000000
00000100
00000000
00000100
,
00000000
10000100
00000000
00100001
,
00000000
00100000
00000000
00000000
,
00000000
00100000
00000001
00000000
,
10000001
00000000
00000001
00000000
,
00100000
00000000
00000000
00000000
,
00000000
00100000
00000000
00100000
,
00000100
00100000
00000000
00000000
,
00000000
00000000
00000000
00000000
,
00000000
00000000
00000000
00100000
,
00000000
00000010
00000000
00000100
,
00000000
10000001
00010000
00000000
,
00010000
00000000
00000000
00010000
,
00000000
00000100
00100000
00000000
,
00000010
10000000
00000000
10000000
,
00000000
10000001
00000000
00000010
,
01000000
00000000
00100000
00010000
,
00000000
10000001
00000000
00000100
,
00000010
01000000
00000001
00000001
,
00000000
01000010
00000000
00000000
,
01000000
00000010
00000100
00000000
,
00000100
00000000
00100000
00000000
,
00100000
00000000
00000000
10000001
,
00000000
00000010
00000000
00000010
,
00000000
00000100
00000000
00000000
,
01000000
00000010
00000000
00000100
,
00000000
10000001
00010000
00000000
,
00000000
00010000
00000010
00010000
,
01000000
00000000
00000010
00000000
,
01000000
00000000
00000100
00100000
,
00000000
10000000
00000000
00100000
,
00000000
10000001
00000000
00000000
,
00000000
00000001
00000010
00000000
,
01000000
00000000
01000000
00000000
,
01000000
00000000
00100000
00000100
,
00000000
10000000
00000000
10000001
,
00000000
00010000
00000000
00000000
,
00000000
00000000
00000001
00000000
,
00100000
00000010
10000000
00000000
,
00100000
00000100
00100000
00000100
,
00100000
00010000
00000000
00010000
,
00000000
00000100
00000000
00000100
,
00100000
00000000
00000000
00010000
,
00000000
10000000
00000000
10000000
,
00000000
10000001
00000000
00000000
,
00100000
00000100
00100000
00000100
,
00100000
00000000
00000000
00010000
,
00000000
10000000
00000000
01000000
,
00000000
00000100
00000000
00000100
,
00000000
10000100
00000000
00100001
,
00000000
10000000
00000000
00000000
,
10000001
00000000
00000001
00000000
,
10000001
00010000
10000001
00000000
,
00100000
00000000
00000000
00010000
,
00000000
10000001
00000000
00010000
,
00010000
00100000
00000000
00000000
;
