#TITLE:Bad Guy;
#SUBTITLE:;
#ARTIST:Rain;
#TITLETRANSLIT:;
#SUBTITLETRANSLIT:;
#ARTISTTRANSLIT:;
#GENRE:;
#CREDIT:locuuraa;
#LYRICSPATH:;
#MUSIC:Bad Guy.ogg;
#OFFSET:1.800;
#SAMPLESTART:11.200;
#SAMPLELENGTH:12.000;
#SELECTABLE:YES;
#BPMS:0.000=70.250;
#STOPS:;
#KEYSOUNDS:;
#BANNER:Bad Guy.png;
#BACKGROUND:Bad Guy.png;
#CDTITLE:../CDTitles/4DSS.png;
#BGCHANGES:-14.700=Bad Guy.avi=1.000=0=0=1,
229.000=Bad Guy.png=1.000=0=0=1,
99999=-nosongbg-=1.000=0=0=0
;
#NOTES:
     ds3ddx-single:
     Hard:
     Medium:
     3:
     :
00000000
00000000
00000000
00000000
,
00000000
00000000
00000000
00000000
,
00000000
00000000
00000000
00000000
,
00000000
00000000
00000000
00000000
,
00000010
00000000
00000000
00000010
,
00000000
00000000
00000010
00000000
,
00000000
00000000
00000000
00000000
00000000
00000000
00000000
00000000
00000100
00000000
00000000
00000000
00000000
00000000
00000000
00000000
00000000
00000000
00000000
00000000
00010000
00000000
00000000
00000000
00000000
00000000
10100100
00000000
00000000
00010000
00000000
00000000
,
10100101
00000000
00000000
00000000
00000000
00000000
00010000
00000000
00000000
00000100
00000000
00000000
00100000
00000000
00000000
00000000
00000000
00000000
00010100
00000000
00000000
00000000
00000000
00000000
00100000
00000000
00000000
00000000
00000000
00000000
00000101
00000000
,
00000000
00000001
00000000
00000000
00000001
00000000
00000000
00000000
00000000
00000000
00010000
00000000
00000000
00000000
00000000
00000000
00000000
00000000
00000000
00000000
00000000
00000000
00100000
00000000
00000000
00000000
00000000
00000000
00000000
00000000
00000000
00000000
,
00000000
00000000
10000000
00000000
00000000
00000000
00000000
00000000
11000000
00000000
00000000
00000000
00000000
00000000
00000100
00000000
00000000
00000000
00000000
00000000
00100000
00000000
00000000
00100100
00000000
00000000
00010000
00000000
00000000
00010000
00000000
00000000
,
00110000
00000000
00000000
00000000
00000000
00000000
00010000
00000000
00000000
00000000
00000000
00000000
00010100
00000000
00000000
00110000
,
00000000
00000000
00000000
00000000
00100100
00000000
00000000
00000000
00000000
00000000
00010000
00000000
00000000
00000001
00000000
00000000
00000000
00000000
00000000
00000000
00100001
00000000
00000000
00000000
00000000
00000000
00110000
00000000
00000000
01010000
00000000
00000000
,
00000000
00000000
10000001
00000000
00000000
01000000
00000000
00000000
00010010
00000000
00000000
00000000
00000000
00000000
01010000
00000000
00000000
00000000
00000000
00000000
00100000
00000000
00000000
00000100
00000000
00000000
00100000
00000000
00000000
00000000
00000000
00000000
,
00010000
00000000
00000000
00100000
00000000
00000000
00010000
00000000
00000000
00100000
00000000
00000000
00100101
00000000
00000000
00100100
,
00000000
00000000
00000000
00000000
00010000
00000000
00000000
00000000
00000000
00000000
00000000
00000000
00000000
00000000
00000000
00000000
00100000
00000000
00000000
00000000
00000000
00000000
01010000
00000000
00000000
00000000
00000000
00000000
00000100
00000000
00000000
00100000
,
00000000
00000000
00000100
00000000
00000000
00000000
00000000
00000000
00110000
00000000
00000000
00000000
00000000
00000000
00000000
00000000
00000000
00000000
00000000
00000000
00000100
00000000
00000000
00100000
00000000
00000000
00100100
00000000
00000000
00000000
00000000
00000000
,
00110100
00000000
00000000
00010000
00000000
00000000
00000100
00000000
00000000
00010000
00000000
00000000
00100000
00000000
00000000
00010000
00000000
00000000
00000100
00000000
00000000
00000000
00000000
00000000
00000001
00000000
00000000
00000000
00000000
00000000
00010000
00000000
,
00000000
00000000
00010000
00000000
00000000
00010000
00000000
00000000
00100000
00000000
00000000
01010000
00000000
00000000
00000100
00000000
,
00000000
00010010
00000000
00000000
00100000
00000000
00000000
00000100
00000000
00000000
00100000
00000000
00000000
01000000
00000000
00000000
,
00110000
00000000
00000000
00000000
00000000
00000000
00000001
00000000
00000000
00100101
00000000
00000000
10000000
00000000
00000000
10000000
,
00000000
00000000
00010000
00000000
00000000
00000001
00000000
00000000
10000000
00000000
00000000
00100101
00000000
00000000
00000000
00000000
,
00000000
00000000
00000000
00000000
00000000
00100100
00000000
00000000
,
10000100
00000000
00000000
00000000
00000000
00000000
00000000
00000000
00000000
00000000
00000000
00000000
10000100
00000000
00000000
00000000
00000000
00000000
00000000
00000000
00000000
00000000
00000000
00000000
10000001
00000000
00000000
00000001
00000000
00000000
01000000
00000000
,
00000000
00000000
00000000
00000000
01000000
00000000
00000000
00000000
00000000
00000000
00000010
00000000
00000000
00000000
00000000
00000000
01000000
00000000
00000000
00100000
00000000
00000000
00010000
00000000
00000000
00000000
00000000
00000000
01000000
00000000
00000000
00100000
,
00000000
00010000
00000000
00000000
00110000
00000000
00000000
00110000
00000000
00000000
00000100
00000000
00000000
00100000
00000000
00000000
,
00010000
00000000
00000000
00000000
00000000
00000000
00010000
00000000
00000000
00000000
00000000
00000000
00100000
00000000
00000000
00000100
00000000
00000000
10100100
00000000
00000000
00000000
00000000
00000000
00000001
00000000
00000000
00000001
00000000
00000000
00000001
00000000
,
00000000
00000000
00110000
00000000
00000000
00000000
00000000
00000000
00110000
00000000
00000000
00100100
00000000
00000000
00010000
00000000
,
00000000
00000000
00010000
00000000
00000000
00000000
00000000
00000000
00010000
00000000
00000000
00000100
00000000
00000000
00000000
00000000
00000000
00000000
00000000
00000000
00010010
00000000
00000000
01000000
00000000
00000000
00000100
00000000
00000000
00100000
00000000
00000000
,
00100100
00000000
00000000
00100100
00000000
00000000
00010000
00000000
00000000
00100100
00000000
00000000
00010000
00000000
00000000
00010000
,
00000000
00000000
00000000
00000000
00000100
00000000
00000000
00000000
00000000
00000000
00100000
00000000
00000000
00000000
00000000
00000000
00000010
00000000
00000000
00000100
00000000
00000000
00010000
00000000
00000000
00000000
00000000
00000000
00000010
00000000
00000000
00000100
,
00000000
00010000
00000000
00000000
00010100
00000000
00000000
00010100
00000000
00000000
00100000
00000000
00000000
01000000
00000000
00000000
,
00100000
00000000
00000000
00000000
;
#NOTES:
     ds3ddx-double:
     Club:
     Easy:
     3:
     :
0000000000000000
0000000000000000
0000000000000000
0000000000000000
,
0000000000000000
0000000000000000
0000000000000000
0000000000000000
,
0000000000000000
0000000000000000
0000000000000000
0000000000000000
,
0000000000000000
0000000000000000
0000000000000000
0000000000000000
,
0000000000000000
0000000000000000
0000001000000000
0000000000000000
,
0000000000000000
0000001000000000
0000000000000000
0000000000000000
,
0000001000000000
0000000000000000
0000000000000000
0000010000000000
,
0000000000000000
0000000000000000
0000000000000000
0000000000000000
0001000000000000
0000000000000000
0000000000000000
0000000000000000
0000000000000000
0000000000000000
1010010000000000
0000000000000000
0000000000000000
0001000000000000
0000000000000000
0000000000000000
1010010100000000
0000000000000000
0000000000000000
0000000000000000
0000000000000000
0000000000000000
0001000000000000
0000000000000000
0000000000000000
0000010000000000
0000000000000000
0000000000000000
0010000000000000
0000000000000000
0000000000000000
0000000000000000
,
0000000000000000
0000000000000000
0001010000000000
0000000000000000
0000000000000000
0000000000000000
0000000000000000
0000000000000000
0010000000000000
0000000000000000
0000000000000000
0000000000000000
0000000000000000
0000000000000000
0000010100000000
0000000000000000
0000000000000000
0000000100000000
0000000000000000
0000000000000000
0000000100000000
0000000000000000
0000000000000000
0000000000000000
0000000000000000
0000000000000000
0000000000010000
0000000000000000
0000000000000000
0000000000000000
0000000000000000
0000000000000000
,
0000000000000000
0000000000000000
0000000000000000
0010000000000000
0000000000000000
0000000000000000
0000000000000000
0000000000000000
0000000000000000
0000000010000000
0000000000000000
0000000000000000
0000000011000000
0000000000000000
0000000000000000
0000000000000100
,
0000000000000000
0000000000000000
0000000000000000
0000000000000000
0000000000100000
0000000000000000
0000000000000000
0000000000100100
0000000000000000
0000000000000000
0000000000010000
0000000000000000
0000000000000000
0000000000010000
0000000000000000
0000000000000000
0000000000110000
0000000000000000
0000000000000000
0000000000000000
0000000000000000
0000000000000000
0000000000000000
0000000000000000
0000000000000000
0000000000000000
0000000000000000
0000000000000000
0000010000000000
0000000000000000
0000000000000000
0000000000000000
,
0000000000000000
0000000000000000
0000000000000000
0000000000000000
0000000000000000
0000000000000000
0000000000000000
0000000000000000
0000001000000000
0000000000000000
0000000000000000
0000000000000000
0000000000000000
0000000000000000
0011000000000000
0000000000000000
0000000000000000
0000000000000000
0000000000000000
0000000000000000
0010010000000000
0000000000000000
0000000000000000
0000000000000000
0000000000000000
0000000000000000
0001000000000000
0000000000000000
0000000000000000
0000000100000000
0000000000000000
0000000000000000
,
0000000000000000
0000000000000000
0000000000000000
0000000000000000
0010000100000000
0000000000000000
0000000000000000
0000000000000000
0000000000000000
0000000000000000
0011000000000000
0000000000000000
0000000000000000
0101000000000000
0000000000000000
0000000000000000
0000000000000000
0000000000000000
1000000100000000
0000000000000000
0000000000000000
0100000000000000
0000000000000000
0000000000000000
0001001000000000
0000000000000000
0000000000000000
0000000000000000
0000000000000000
0000000000000000
0101000000000000
0000000000000000
,
0000000000000000
0000000000000000
0000000000000000
0000000000000000
0010000000000000
0000000000000000
0000000000000000
0000010000000000
0000000000000000
0000000000000000
0010000000000000
0000000000000000
0000000000000000
0000000000000000
0000000000000000
0000000000000000
0001000000000000
0000000000000000
0000000000000000
0000000000000000
0000000000000000
0000000000000000
0010000000000000
0000000000000000
0000000000000000
0000000000000000
0000000000000000
0000000000000000
0001000000000000
0000000000000000
0000000000000000
0000000000000000
,
0000000000000000
0010000000000000
0000000000000000
0000000000000000
0000010000000000
0000000000000000
0000000000000000
0000010000100000
0000000000000000
0000000000000000
0000000000010000
0000000000000000
0000000000000000
0000000000000000
0000000000000000
0000000000000000
,
0000000000100000
0000000000000000
0000000000000000
0000000000000000
0000000000000000
0000000000000000
0000000001010000
0000000000000000
0000000000000000
0000000000000000
0000000000000000
0000000000000000
0000000000000100
0000000000000000
0000000000000000
0000000000100000
0000000000000000
0000000000000000
0000000000000100
0000000000000000
0000000000000000
0000000000000000
0000000000000000
0000000000000000
0000000000110000
0000000000000000
0000000000000000
0000000000000000
0000000000000000
0000000000000000
0000000000000000
0000000000000000
,
0000000000000000
0000000000000000
0000000000000000
0000000000000000
0000000000000100
0000000000000000
0000000000000000
0000000000100000
0000000000000000
0000000000000000
0000000000100100
0000000000000000
0000000000000000
0000000000000000
0000000000000000
0000000000000000
0000000000110100
0000000000000000
0000000000000000
0000000000010000
0000000000000000
0000000000000000
0000000000000100
0000000000000000
0000000000000000
0000000000010000
0000000000000000
0000000000000000
0000000000100000
0000000000000000
0000000000000000
0000000000010000
,
0000000000000000
0000000000000100
0000000000000000
0000000000000000
0000000000000001
0000000000000000
0000000000000000
0000000000010000
0000000000000000
0000000000000000
0000000000010000
0000000000000000
0000000000000000
0000000000010000
0000000000000000
0000000000000000
,
0000000000100000
0000000000000000
0000000000000000
0000000001000000
0000000000000000
0000000000000000
0000010000000000
0000000000000000
0000000000000000
0001001000000000
0000000000000000
0000000000000000
0010000000000000
0000000000000000
0000000000000000
0000010000000000
,
0000000000000000
0000000000000000
0010000000000000
0000000000000000
0000000000000000
0100000000000000
0000000000000000
0000000000000000
0011000000000000
0000000000000000
0000000000000000
0000000000000000
0000000000000000
0000000000000000
0000000100000000
0000000000000000
,
0000000000000000
0010010100000000
0000000000000000
0000000000000000
1000000000000000
0000000000000000
0000000000000000
1000000000000000
0000000000000000
0000000000000000
0001000000000000
0000000000000000
0000000000000000
0000000100000000
0000000000000000
0000000000000000
,
1000000000000000
0000000000000000
0000000000000000
0010010100000000
0000000000000000
0000000000000000
0000000000000000
0000000000000000
0000000000000000
0000000000000000
0000000000000000
0000000000000000
0000000000000000
0000000000000000
0000000000000000
0000000000000000
,
0000000000000000
0000000000100100
0000000000000000
0000000000000000
0000000010000100
0000000000000000
0000000000000000
0000000010000100
,
0000000000000000
0000000000000000
0000000000000000
0000000000000000
0000000000000000
0000000000000000
0000000000000000
0000000000000000
0000000010000001
0000000000000000
0000000000000000
0000000000000001
0000000000000000
0000000000000000
0000000001000000
0000000000000000
0000000000000000
0000000000000000
0000000000000000
0000000000000000
0000000001000000
0000000000000000
0000000000000000
0000000000000000
0000000000000000
0000000000000000
0000000000000010
0000000000000000
0000000000000000
0000000000000000
0000000000000000
0000000000000000
,
0000000001000000
0000000000000000
0000000000000000
0000000000100000
0000000000000000
0000000000000000
0000000000010000
0000000000000000
0000000000000000
0000000000000000
0000000000000000
0000000000000000
0000000001000000
0000000000000000
0000000000000000
0000000000100000
0000000000000000
0000000000000000
0000000000010000
0000000000000000
0000000000000000
0000000000000000
0000000000000000
0000000000000000
0000000000110000
0000000000000000
0000000000000000
0000000000000000
0000000000000000
0000000000000000
0000000000110000
0000000000000000
,
0000000000000000
0000000000000000
0000000000000000
0000000000000000
0000000000000100
0000000000000000
0000000000000000
0000000000000000
0000000000000000
0000000000000000
0000000000100000
0000000000000000
0000000000000000
0000000000000000
0000000000000000
0000000000000000
0000000000010000
0000000000000000
0000000000000000
0000000000000000
0000000000000000
0000000000000000
0000000000010000
0000000000000000
0000000000000000
0000000000000000
0000000000000000
0000000000000000
0000010000000000
0000000000000000
0000000000000000
0000000000100000
,
0000000000000000
0000000000000000
0000010000100000
0000000000000000
0000000000000000
0000000000000000
0000000000000000
0000010000000000
0000000000000000
0000000000000000
0000001000000000
0000000000000000
0000000000000000
0000000000000000
0000010000000000
0000000000000000
0000000000000000
0000000000000000
0000000000000000
0000000000000000
0011000000000000
0000000000000000
0000000000000000
0000000000000000
0000000000000000
0000000000000000
0000000000000000
0000000000000000
0000000000000000
0000000000000000
0000000000000000
0000000000000000
,
0011000000000000
0000000000000000
0000000000000000
0000000000000000
0000000000000000
0000000000000000
0010010000000000
0000000000000000
0000000000000000
0000000000000000
0000000000000000
0000000000000000
0001000000000000
0000000000000000
0000000000000000
0000000000000000
0000000000000000
0000000000000000
0001000000000000
0000000000000000
0000000000000000
0000000000000000
0000000000000000
0000000000000000
0001000000000000
0000000000000000
0000000000000000
0000010000000000
0000000000000000
0000000000000000
0000000000000000
0000000000000000
,
0000000000000000
0000000000000000
0000000000000000
0000000000000000
0001001000000000
0000000000000000
0000000000000000
0100000000000000
0000000000000000
0000000000000000
0000010000000000
0000000000000000
0000000000000000
0010000000000000
0000000000000000
0000000000000000
0010010000000000
0000000000000000
0000000000000000
0000000000000000
0000000000000000
0000000000000000
0010010000000000
0000000000000000
0000000000000000
0000000000000000
0000000000000000
0000000000000000
0001000000000000
0000000000000000
0000000000000000
0000000000000000
,
0000000000000000
0010010000000000
0000000000000000
0000000000000000
0001000000000000
0000000000000000
0000000000000000
0001000000000000
0000000000000000
0000000000000000
0000010000000000
0000000000000000
0000000000000000
0010000000000000
0000000000000000
0000000000000000
,
0000001000000000
0000000000000000
0000000000000000
0000010000000000
0000000000000000
0000000000000000
0001000000000000
0000000000000000
0000000000000000
0000000000000000
0000000000000000
0000000000000000
0000010000000000
0000000000000000
0000000000000000
0000000000100000
0000000000000000
0000000000000000
0000000001000000
0000000000000000
0000000000000000
0000000000000000
0000000000000000
0000000000000000
0000000000010100
0000000000000000
0000000000000000
0000000000000000
0000000000000000
0000000000000000
0000000000010100
0000000000000000
,
0000000000000000
0000000000000000
0000000000100000
0000000000000000
0000000000000000
0000000001000000
0000000000000000
0000000000000000
0000000000100000
0000000000000000
0000000000000000
0000000000000000
0000000000000000
0000000000000000
0000000000000000
0000000000000000
;
#NOTES:
     ds3ddx-single:
     Easy:
     Easy:
     3:
     :
00000000
00000000
00000000
00000000
,
00000000
00000000
00000000
00000000
,
00000000
00000000
00000000
00000000
,
00000000
00000000
00000000
00000000
,
00000000
00000000
00000010
00000000
,
00000000
00000010
00000000
00000000
,
00000010
00000000
00000000
00000100
,
00000000
00000000
00010000
00000000
00000000
00000000
00000000
00000000
00000000
00000000
00000000
00010000
00000000
00000000
00100000
00000000
,
00000000
00000100
00000000
00000000
00000000
00000000
00000000
00000100
00000000
00000000
00000000
00000000
00000000
00010000
00000000
00000000
,
00000000
00000000
00000000
00100000
00000000
00000000
00000000
00000000
00000000
10000000
00000000
00000000
00000000
00000000
00000000
00000100
,
00000000
00000000
00000000
00000000
00000000
00010000
00000000
00000000
00000000
00000000
00000000
00000000
00000000
00000000
00010000
00000000
,
00000000
00000000
00000000
00000000
00000100
00000000
00000000
00100000
00000000
00000000
00100100
00000000
00000000
00000000
00000000
00000000
,
00000000
00000000
00000000
00000000
00000000
00000000
00000000
00000000
00000000
00000000
00000000
00000000
00000000
01000000
00000000
00000000
00000000
00000000
00000000
00000000
00000000
00000000
00000000
00000000
00010000
00000000
00000000
00000000
00000000
00000000
00000000
00000000
,
00000000
00000000
00000000
00000000
00000000
00000000
00000000
00000000
00010000
00000000
00000000
00100000
00000000
00000000
00010000
00000000
,
00000000
00000000
00000000
00000000
00000100
00000000
00000000
00000100
00000000
00000000
00000000
00000000
00000000
00000000
00000000
00000000
,
00100000
00000000
00000000
00010000
00000000
00000000
00000000
00000000
00000000
00000000
00000000
00000000
00010000
00000000
00000000
00000000
,
00000000
00000000
00000100
00000000
00000000
00000100
00000000
00000000
00100000
00000000
00000000
00000000
00000000
00000000
00000000
00000000
,
00000000
00000001
00000000
00000000
,
00100000
00000000
00000000
00010000
00000000
00000000
00000000
00000000
00000000
00010000
00000000
00000000
00100000
00000000
00000000
00000100
,
00000000
00100000
00000000
00000000
00100000
00000000
00000000
00000001
,
00000000
00100000
00000000
00000000
10000000
00000000
00000000
00000000
00000000
00000000
00000000
00000000
00000000
00000001
00000000
00000000
,
00000000
00000000
00000000
00100000
00000000
00000000
00000000
00000000
00000000
00000000
00000000
00000000
00000000
00000000
00000000
00000000
,
00000000
00100000
00000000
00000000
10000100
00000000
00000000
10000100
,
00000000
00000000
00000000
00000000
00000000
00000000
00000000
00000000
00000000
00000000
01000000
00000000
00000000
00000010
00000000
00000000
,
01000000
00000000
00000000
01000000
00000000
00000000
00010000
00000000
,
00000000
00000100
00000000
00000000
00010000
00000000
00000000
00000000
,
00000000
00000000
00000001
00000000
00000000
00100000
00000000
00000000
,
00010000
00000000
00000000
00010000
,
00000000
00000000
00000000
00000000
00000000
00000100
00000000
00000000
00000000
00000000
00000000
00000000
00000000
00000000
00010000
00000000
,
00000000
00000000
00000000
00000000
00010000
00000000
00000000
00000000
00000000
00000000
00000000
00000000
00000000
00100000
00000000
00000000
,
00000010
00000000
00000000
00000010
00000000
00000000
00000100
00000000
,
00000000
00100000
00000000
00000000
00100000
00000000
00000000
00000000
;
