#TITLE:BREAKS (69 Positions);
#SUBTITLE:;
#ARTIST:街舞主体 (SAFEWAY);
#TITLETRANSLIT:;
#SUBTITLETRANSLIT:;
#ARTISTTRANSLIT:Street Dance Theme;
#GENRE:;
#CREDIT:locuuraa;
#LYRICSPATH:;
#MUSIC:BREAKS (69 Positions).ogg;
#OFFSET:0.200;
#SAMPLESTART:12.020;
#SAMPLELENGTH:12.000;
#SELECTABLE:YES;
#BPMS:0.000=135.200;
#STOPS:;
#KEYSOUNDS:;
#BANNER:BREAKS (69 Positions).png;
#BACKGROUND:BREAKS (69 Positions).png;
#CDTITLE:../CDTitles/4DSS.png;
#BGCHANGES:-14.700=BREAKS (69 Positions).avi=1.000=0=0=1,
229.000=BREAKS (69 Positions).png=1.000=0=0=1,
99999=-nosongbg-=1.000=0=0=0
;
#NOTES:
     ds3ddx-single:
     Hard:
     Medium:
     3:
     :
00000000
00000000
00000000
00000000
,
00000000
00000000
00000000
00000000
,
00000000
00000000
00000000
00000000
,
00000000
00000000
00000000
00000000
,
00000000
01000000
00000000
00000011
,
00000000
00000010
00000000
11000000
,
00000000
01000000
00000000
10100000
,
00000000
00000000
00100000
00000000
00000000
00000000
00000101
00000100
,
00000100
00000100
10100000
00000000
00000000
00000000
00000010
00000000
,
00000000
01000000
00000000
10100000
,
00000000
00000100
00000000
10100000
,
00000000
00000000
00000010
00000000
00000000
00000000
00000101
00000100
,
00000100
00000100
10100000
00000000
00000000
00000000
00000101
00000000
,
00000000
00000010
00000000
11000000
,
00000000
01000000
00000000
00000011
,
00000000
00000000
00100000
00000000
00000000
00000000
10100000
00100000
,
00100000
00100000
00000101
00000000
00000000
00000000
00010100
00000000
,
00000000
00100000
00000000
00010100
,
00000000
01000000
00000000
00000011
,
00000000
00000000
00000010
00000000
00000000
00000000
00000011
00000010
,
00000010
00000010
11000000
00000000
00000000
00000000
00000100
00000000
,
00000000
00100000
00000000
00000010
,
00000000
00000100
00000000
00100000
,
00000000
00000000
01000000
00000000
00000000
00000000
00000011
00000010
,
00000010
00000010
11000000
00000000
00000000
00000000
00100000
00000000
,
00000000
00100000
00000000
00000100
,
00000000
00000010
00000000
00000010
,
00000000
01000000
00000000
00000010
,
00000000
10000001
00000000
00000000
,
00000000
00000000
00000000
00000000
,
00000000
00100000
00000000
00000101
,
00000000
00000100
00000000
10100000
,
00000000
01000000
00000000
00000011
,
00000000
00000010
00000000
11000000
,
00000000
00000100
00000000
00000100
,
00000000
00100000
00000000
00100000
,
00000000
01000000
00000010
00000100
,
00000101
10000000
00000000
00000000
,
00000000
01000000
00000010
00000100
,
00000100
00100000
00000100
01000000
,
01000000
00000100
00000000
00000101
,
00000000
00000100
00000000
10100000
,
00000000
00100000
01000000
00000010
,
00000010
00000100
00000100
00000010
,
00000010
00100000
00000000
00000011
,
00000000
00000100
00000000
11000000
,
00000000
01000000
00000000
00000101
,
00000000
00100000
00000000
00000011
,
00000000
01000000
00000000
00000011
,
00000000
00000100
00000000
10100000
,
00000000
00100000
00000000
00000101
,
00000000
00000000
00000010
00000000
00000000
00000000
11000000
01000000
,
01000000
01000000
00000000
00000000
00000000
00000000
00000000
00000000
;
#NOTES:
     ds3ddx-double:
     Club:
     Easy:
     1:
     :
0000000000000000
0000000000000000
0000000000000000
0000000000000000
,
0000000000000000
0000000000000000
0000000000000000
0000000000000000
,
0000000000000000
0000000000000000
0000000000000000
0000000000000000
,
0000000000000000
0000000000000000
0000000000000000
0000000000000000
,
0000000000000000
0100000000000000
0000000000000000
0000001100000000
,
0000000000000000
0000001000000000
0000000000000000
1100000000000000
,
0000000000000000
0000001000000000
0000000000000000
0000001100000000
,
0000000000000000
0000000000000000
0010000000000000
0000000000000000
0000000000000000
0000000000000000
0000010100000000
0000010000000000
,
0000010000000000
0000010000000000
1010000000000000
0000000000000000
0000000000000000
0000000000000000
0000001000000000
0000000000000000
,
0000000000000000
0000000001000000
0000000000000000
0000000010100000
,
0000000000000000
0000000000000100
0000000000000000
0000000010100000
,
0000000000000000
0000000000000000
0000000000000010
0000000000000000
0000000000000000
0000000000000000
0000000000000101
0000000000000100
,
0000000000000100
0000000000000100
0000000010100000
0000000000000000
0000000000000000
0000000000000000
0000000000000100
0000000000000000
,
0000000000000000
0000000000100000
0000000000000000
0000001000000000
,
0000000000000000
0000001000000000
0000000000000000
0000001100000000
,
0000000000000000
0000000000000000
0000010000000000
0000000000000000
0000000000000000
0000000000000000
1010000000000000
0010000000000000
,
0010000000000000
0010000000000000
0000010100000000
0000000000000000
0000000000000000
0000000000000000
0000010000000000
0000000000000000
,
0000000000000000
0010000000000000
0000000000000000
0000010000000000
,
0000000000000000
0000001000000000
0000000000000000
0000001000000000
,
0000000000000000
0000000000000000
0000000001000000
0000000000000000
0000000000000000
0000000000000000
0000000000100000
0000000000100000
,
0000000000100000
0000000000100000
0000000010000000
0000000000000000
0000000000000000
0000000000000000
0000000000000100
0000000000000000
,
0000000000000000
0000000000100000
0000000000000000
0000000001000000
,
0000000000000000
0000010000000000
0000000000000000
0010000000000000
,
0000000000000000
0000000000000000
0100000000000000
0000000000000000
0000000000000000
0000000000000000
0000001100000000
0000001000000000
,
0000001000000000
0000001000000000
1000000000000000
0000000000000000
0000000000000000
0000000000000000
0010000000000000
0000000000000000
,
0000000000000000
0010000000000000
0000000000000000
0000010000000000
,
0000000000000000
0000001000000000
0000000000000000
0000001000000000
,
0000000000000000
0000000001000000
0000000000000000
0000001000000000
,
0000000000000000
0000000110000000
0000000000000000
0000000000000000
,
0000000000000000
0000000000000000
0000000000000000
0000000000000000
,
0000000000000000
0000000000100000
0000000000000000
0000000000000100
,
0000000000000000
0000000000000100
0000000000000000
0000000000100000
,
0000000000000000
0000000001000000
0000000000000000
0000000011000000
,
0000000000000000
0000001000000000
0000000000000000
0000001100000000
,
0000000000000000
0000010000000000
0000000000000000
0000010000000000
,
0000000000000000
0010000000000000
0000000000000000
0010000000000000
,
0000000000000000
0100000000000000
0000001000000000
0000010000000000
,
0000010100000000
1000000000000000
0000000000000000
0000000000000000
,
0000000000000000
0100000000000000
0000001000000000
0000010000000000
,
0000010000000000
0010000000000000
0000010000000000
0100000000000000
,
0100000000000000
0000010000000000
0000000000000000
0000010100000000
,
0000000000000000
0000010000000000
0000000000000000
1010000000000000
,
0000000000000000
0010000000000000
0100000000000000
0000001000000000
,
0000010000000000
0000010000000000
0000010000000000
0000001000000000
,
0000001000000000
0000010000000000
0000000000000000
0000000000100000
,
0000000000000000
0000000000100000
0000000000000000
0000000000000101
,
0000000000000000
0000000000100000
0000000000000000
0000000010100000
,
0000000000000000
0000000000000100
0000000000000000
0000000000000011
,
0000000000000000
0000000001000000
0000000000000000
0000000011000000
,
0000000000000000
0000010000000000
0000000000000000
0011000000000000
,
0000000000000000
0010000000000000
0000000000000000
0001010000000000
,
0000000000000000
0000000000000000
0000001000000000
0000000000000000
0000000000000000
0000000000000000
1100000000000000
0100000000000000
,
0100000000000000
0100000000000000
0000000000000000
0000000000000000
0000000000000000
0000000000000000
0000000000000000
0000000000000000
;
