#TITLE:BOUNCE;
#SUBTITLE:;
#ARTIST:Sarah Connor;
#TITLETRANSLIT:;
#SUBTITLETRANSLIT:;
#ARTISTTRANSLIT:;
#GENRE:;
#CREDIT:locuuraa;
#LYRICSPATH:;
#MUSIC:BOUNCE.ogg;
#OFFSET:1.300;
#SAMPLESTART:11.860;
#SAMPLELENGTH:12.000;
#SELECTABLE:YES;
#BPMS:0.000=96.000;
#STOPS:;
#KEYSOUNDS:;
#BANNER:BOUNCE.png;
#BACKGROUND:BOUNCE.png;
#CDTITLE:../CDTitles/4DSS.png;
#BGCHANGES:-14.700=BOUNCE.avi=1.000=0=0=1,
229.000=BOUNCE.png=1.000=0=0=1,
99999=-nosongbg-=1.000=0=0=0
;
#NOTES:
     ds3ddx-double:
     Club:
     Easy:
     4:
     :
0000000000000000
0000000000000000
0000000000000000
0000000000000000
0000000000000000
0100000000000000
0000000000000000
0000001000000000
,
0000000000000000
1100000000000000
0000000000000000
0000001100000000
0000000000000000
0010000000000000
0000000000000000
0000010000000000
,
0000000000000000
0010000000000000
0000001000000000
0000010000000000
0000000000000000
0000000000100000
0000000000000000
0000001000000000
,
0000000000000000
0000000001000000
0000000000000000
0000001000000000
0000000000000000
0001010000000000
0000000000000000
1010000000000000
,
0000000000000000
0000010100000000
0000000000000000
0000000000000000
0000000000000000
1100000000000000
0000000000000000
0000001100000000
,
0000000000000000
0010000000000000
0000000000000000
0000010000000000
0000000000000000
0000001000000000
0000000000000000
0000000000100000
,
0000000000000000
0000010000000000
0000000000000000
0000000001000000
0000000000000000
0000000000000010
0000000000000000
0000000011000000
,
0000000000000000
0000000000000010
0000000000000000
0000001000000010
0000000000000000
0000000001000000
0000000000000000
0000000001000000
,
0000000000000000
0000000000100000
0000000000000000
0000010000000000
0000000000000000
0011000000000000
0000000000000000
0001010000000000
,
0000000000000000
0000010000000000
0010000000000000
0000000000100000
0000000000000000
0000001000000000
0000000000000000
0000000001000000
,
0000000000000000
0000010000000000
0000000000100000
0000001000000000
0000000000000000
0000000001000000
0000000001000000
0000001000000000
,
0000000000000000
0000000001000000
0000001000000000
0000000000000010
0000000000000000
0000000001000000
0000000000000010
0000001000000000
,
0000000000000000
0100000000000000
0000001000000000
0011000000000000
0000000000000000
0000010000000000
0000000000000000
1100010100000000
,
0000000000000000
0000010000000000
0010000000000000
0000001000000000
0000000000000000
0100000000000000
0000001000000000
0000010000000000
,
0000000000100000
0000000001000000
0000000000000010
0000000000000100
0000000000000000
0000000011000000
0000000000000000
0000000000010100
,
0000000000000000
0000000001000000
0000000000100000
0000010000000000
0000000000000000
0000001000000000
0000001000000000
0100000000000000
,
0000000000000000
0000001000000000
0100000000000000
0001010000000000
0000000000000000
0010000000000000
0000001000000000
0000010001000000
,
0000000000000000
0000000000000100
0000000001000000
0000000011000101
0000000000000000
0000001000000000
0000000000000000
0000000001000000
,
0000000000000000
0000000000100000
0000010000000000
0000000001000000
0000000000000000
0000001000000000
0000000000000000
0100000000000000
,
0000000000000000
0000010000000000
0010000000000000
0100100000000000
0000000000000000
0000010000000000
0000010000000000
0000000000100000
,
0000000000000000
0000000000000100
0000000001000000
0000000000000100
0000000000000000
0000000000000010
0000000000000000
0000001000000000
,
0000000000000000
0000000000100000
0000010000000000
0000001000000000
0000000000000000
0000000000100000
0000000000000000
0000000001000000
,
0000000000000000
0000000000000100
0000000000000000
0000000010100000
0000000000000000
0000000000000010
0000000001000000
0000001000000010
,
0000000000000000
0000000001000000
0000000000100000
0001010000000000
0000000000000000
0100000000000000
0100000000000000
0000001000000000
,
0000001000000000
1100000000000000
0000001000000000
1100000000000000
0000000000000000
0000010000000000
0000000000000000
0000001000000000
,
0000000000000000
0000000000100000
0000000001000000
0000000000000010
0000000000000000
0000000001000000
0000000000000000
0000000000100000
,
0000000000000000
0000010000000000
0000000000100000
0000001000000000
0000000000000000
0000000000110000
0000000000000000
0001010000000000
,
0000000000000000
0010000000000000
0000000000000000
0000001000000000
0000000000000000
0010000000000000
0000000000000000
0001010000000000
,
0000000000000000
0000000000000000
0000000000000000
1100000000000000
0000000000000000
0000000100000000
0000000000000000
1000000000000000
,
0000000000000000
0000000100000000
1000000000000000
0000001100000000
0000000000000000
0000010000000000
0000000000000000
0000000000100000
,
0000000000000000
0000000001000000
0000000000000000
0000000000000011
0000000000000000
0000000001000000
0000000000000000
0000010000000000
,
0000000000000000
0000000001000000
0000001000000000
0000000001000000
0000000000000000
0010000000000000
0000000000000000
0000001000000000
,
0000000000000000
0001010000000000
0000000000000000
0100000000000000
0000000000000000
0000000100000000
0000000000000000
0000000100000000
,
0000000000000000
0010000000000000
0000010000000000
1010000000000000
0000000000000000
0000001000000000
0000000000000000
0000010000000000
,
0000000000000000
0000000000100000
0000010000000000
0000000001000000
0000000000000000
0000000001000000
0000000001000000
0000001000000000
,
0000000000000000
0010000000000000
0000000000000000
0000001000000000
0000000000000000
0100000000000000
0100000000000000
0000001100000000
,
0000000000000000
0000001000000000
0000000000000000
0011000000000000
0000000000000000
0010000000000000
0000000000000000
0010001000000000
,
0000000000000000
0000010000000000
0000000000100000
0000000001000000
0000000000000000
0000001000000000
0000000000000000
0000010000000000
,
0000000000000000
0010000000000000
0000001000000000
0000010000000000
0000000000000000
0000000000100000
0000000001000000
0000000000000010
,
0000000000000000
0000000011000000
0000000000000000
0000000000000000
0000000000000000
0000000000000000
0000000000000000
0000000000000000
;
#NOTES:
     ds3ddx-single:
     Hard:
     Medium:
     4:
     :
00000000
00000000
00000000
00000000
00000000
01000000
00000000
00000010
,
00000000
11000000
00000000
00000011
00000000
00100000
00000000
00000100
,
00000000
00100000
00000100
10100000
00000010
11000000
00000000
00000011
,
00000000
01000000
00000000
00000010
00000000
00010100
00000000
10100000
,
00000000
00000101
00000000
00000000
00000000
11000000
00000000
00000011
,
00000000
00100000
00000000
00000100
00000000
11000011
00000000
00000100
,
00000000
00100000
00000000
00000010
01000000
00000011
00000000
00000000
,
00000000
00110000
00000000
01000010
00000000
11000101
00000000
00000100
,
00000000
11000000
00000000
00000011
00000000
00110000
00000000
00010100
,
00000000
00000100
00100000
00000101
00000000
00000010
00000000
01000000
,
00000000
00000010
01000000
00010100
00000000
01000000
01000000
00000011
,
00000000
00000010
01000000
00010100
00000000
00000010
00000010
11000000
,
00000000
01000000
00000010
00110000
00000000
00000100
00000000
11000101
,
00000000
00000100
00100000
01001000
00000000
00000001
10000000
00000010
,
01000000
00000100
00100000
00010100
00000000
00000001
00000000
10000000
,
00000000
00010100
00100000
01001000
00000000
00000001
00000001
01000000
,
01000000
00000010
01000000
00010100
00000000
00100000
00000010
10100011
,
00000000
00000100
01000000
11000101
00000000
00000010
00000000
01000000
,
00000000
00010100
00100000
01001000
00000000
00000010
00000000
01000000
,
00000000
00000100
00100000
01011000
00000000
00000010
00000010
11000000
,
00000000
00000100
01000000
00000101
00000000
01000000
00000000
00000010
,
00000000
00100000
00000100
11000000
00000000
00000100
00000000
00001010
,
00000000
00100000
00000000
01001000
00000000
00000101
00000000
10100000
,
00000000
00000010
01000000
00010100
00000000
01000000
01000000
00000010
,
00000010
11000000
00000010
11000000
00000000
00000100
00000000
00100000
,
00000000
00000100
00000100
11000000
00000000
00000010
00000000
00100000
,
00000000
00000100
00100000
00000011
00000000
11000000
00000000
00000101
,
00000000
00010000
10000000
00100000
00000000
00000101
00000000
00000011
,
00000000
00110000
00000000
11000000
00000000
00000001
00000000
10000000
,
00000000
00000001
10000000
00000011
00000000
00000100
00100000
01000000
,
00000010
00000100
00100000
01001000
00000000
00000010
00000000
01000000
,
00000000
00000010
01000000
00000011
00000000
01000000
00000010
00110000
,
00000000
00000010
01000000
00010100
00000000
00010100
00000000
00110000
,
00000000
00100000
00000100
10100000
00000000
01000000
00000000
00000010
,
00000000
01000000
00000010
00110000
00000000
00000010
00000010
11000000
,
00000000
01000000
00000010
00110000
00000000
01000000
01000000
00000011
,
00000000
00000010
01000000
00010100
00000000
00100000
00000000
10100011
,
00000000
00100000
00000100
00001010
00000000
11000000
00000000
00000011
,
00000000
00100000
00000100
10100000
00000000
00000010
01000000
00000011
,
00000000
01000001
00000000
00000000
00000000
00000000
00000000
00000000
;
#NOTES:
     ds3ddx-single:
     Easy:
     Easy:
     2:
     :
00000000
00000000
00000000
00000000
00000000
01000000
00000000
00000000
,
00000000
00000010
00000000
00000000
00000000
00100000
00000000
00000000
,
00000000
00000100
00000000
00000000
00000000
01000001
00000000
00000000
,
00000000
10000010
00000000
00000010
00000000
00000100
00000000
00100000
,
00000000
00000101
00000000
00000000
00000000
10000000
00000000
00000001
,
00000000
00010000
00000000
00000000
00000000
01000010
00000000
00000000
,
00000000
00100000
00000000
00000000
00000000
00000011
00000000
00000000
,
00000000
00110000
00000000
01000010
00000000
00000000
00000000
00000100
,
00000000
11000000
00000000
00000000
00000000
00100000
00000000
00000000
,
00000000
00000100
00000000
00000000
00000000
00000010
00000000
01000000
,
00000000
00000010
00000000
00000000
00000000
01000000
00000000
00000011
,
00000000
00000010
00000000
00010100
00000000
00000010
00000000
01000000
,
00000000
01000000
00000000
00000010
00000000
00000000
00000000
11000101
,
00000000
00000100
00000000
01000000
00000000
00000001
00000000
10000000
,
00000000
00000000
00000000
00010100
00000000
00000001
00000000
10000000
,
00000000
00000100
00000000
01000000
00000000
00000001
00000000
01000000
,
00000000
00000010
00000000
00000100
00000000
00100000
00000000
00000000
,
00000000
00000100
00000000
01000100
00000000
00000000
00000000
01000000
,
00000000
00000100
00000000
00001000
00000000
00000010
00000000
01000000
,
00000000
00000100
00000000
00011000
00000000
00000010
00000000
00000000
,
00000000
00000100
00000000
00010001
00000000
01000000
00000000
00000010
,
00000000
00100000
00000000
11000000
00000000
00000100
00000000
00000010
,
00000000
00100000
00000000
00000000
00000000
00000101
00000000
10100000
,
00000000
00000000
00000000
00010100
00000000
01000000
00000000
00000010
,
00000000
00000100
00000000
01000000
00000000
00000100
00000000
00100000
,
00000000
00000100
00000000
00000000
00000000
10000010
00000000
00100000
,
00000000
00000100
00000000
00000011
00000000
11000000
00000000
00000001
,
00000000
00010000
00000000
10000000
00000000
00000001
00000000
00000000
,
00000000
00110000
00000000
00000000
00000000
00000011
00000000
10000000
,
00000000
00000001
00000000
10000001
00000000
01000000
00000000
00000000
,
00000000
00000100
00000000
00000000
00000000
00000010
00000000
01000000
,
00000000
01000000
00000000
00000010
00000000
00000000
00000000
00100000
,
00000000
00000010
00000000
00010100
00000000
10000000
00000000
00010000
,
00000000
00000000
00000000
10100000
00000000
00000000
00000000
00000010
,
00000000
01000000
00000000
00000000
00000000
00000011
00000000
11000000
,
00000000
00000100
00000000
00000010
00000000
01000000
00000000
00000000
,
00000000
00000010
00000000
00000000
00000000
00100000
00000000
00000000
,
00000000
11000011
00000000
00000000
00000000
11000000
00000000
00000011
,
00000000
00100000
00000100
00100000
00000000
00000010
01000000
00000011
,
00000000
01000001
00000000
00000000
00000000
00000000
00000000
00000000
;
