#TITLE:BEAT IT;
#SUBTITLE:;
#ARTIST:Michael Jackson;
#TITLETRANSLIT:;
#SUBTITLETRANSLIT:;
#ARTISTTRANSLIT:;
#GENRE:;
#CREDIT:locuuraa;
#LYRICSPATH:;
#MUSIC:BEAT IT.ogg;
#OFFSET:0.080;
#SAMPLESTART:11.980;
#SAMPLELENGTH:12.000;
#SELECTABLE:YES;
#BPMS:0.000=138.800;
#STOPS:;
#KEYSOUNDS:;
#BANNER:BEAT IT.png;
#BACKGROUND:BEAT IT.png;
#CDTITLE:../CDTitles/4DSS.png;
#BGCHANGES:-14.700=BEAT IT.avi=1.000=0=0=1,
229.000=BEAT IT.png=1.000=0=0=1,
99999=-nosongbg-=1.000=0=0=0
;
#NOTES:
     ds3ddx-single:
     Hard:
     Medium:
     4:
     :
00000000
00000100
00000000
00000000
,
00000000
10000000
00000000
00000000
,
00000000
00100000
00000000
00000000
,
00000000
00000001
00000000
00000000
,
00000000
00100100
00000000
00000000
,
00000000
10000001
00000000
00000000
,
00000000
00100000
00100100
00000000
,
00000011
00000000
00000000
01000000
00000000
00000000
01000010
00000000
00000000
00000000
00000000
00100000
,
00000101
00000100
00010010
00000000
,
11000000
00000000
00000000
00000000
00100000
00000000
00000000
00000000
01010000
00000000
00000000
00000000
00000000
00000000
00000000
01000000
,
00000011
00100000
00100100
00000000
,
00000011
00000000
00000000
00000000
01000000
00000000
00000000
00000000
01000010
00000000
00000000
00000000
00000000
00000000
00000000
00100000
,
00000101
00100000
00100100
00000000
,
00000011
00000000
00000000
01000000
00000000
00000000
01000010
00000000
00000000
00000000
00000000
00100000
,
00000101
00100000
00010000
00000010
,
00010000
00100000
00000100
00100100
,
00100100
00000100
00010000
01000000
,
00010000
00000100
00100100
01000001
,
00000000
00000100
00010000
01000000
,
00010000
00000100
00100000
00100100
,
00100100
00100000
00010000
00000010
,
00010000
00100000
00100100
10000010
,
00000000
00000100
00100100
01000000
,
00000011
01000010
00010100
00010100
,
10000001
00100000
01000000
00000010
,
00000100
00100000
00100100
00000000
,
00000000
00000011
11000000
00011010
,
00011010
11000000
00000011
01011000
,
01011000
00000000
00100000
00010100
00000000
00000000
00000000
00000000
,
00000000
00000000
00000010
11000000
00000000
00000000
00000000
00000000
,
00000000
00100000
00010100
00000011
,
11000000
00000011
00000011
10100101
,
00000000
00100000
01000000
00000010
,
00000100
00100000
10100101
00000100
,
00100000
00000100
00100000
00010010
,
00100000
00000100
00100000
00000100
,
01010000
00000000
00000000
00100010
01000100
00000000
00000000
00000000
00000000
00000100
00000000
00000000
,
00000100
00100000
00100000
00011000
,
01000010
00000000
10000001
00010000
00100000
00000000
00100000
00000000
,
00100000
00000000
00010000
10000001
00000100
00000000
00000100
00000000
,
00000100
00000010
01000000
00010100
,
00110000
00000000
00000001
10000000
00000001
10000000
00000000
00000000
,
00000000
00000100
00100000
01010000
,
00000000
00000010
01000000
00000101
,
00000000
00100000
00000100
00010010
,
00000000
01000000
00000010
10100000
,
00000000
00000000
10000001
00010000
00100000
00000000
00100000
00000000
,
00100000
00000000
00010000
10000001
00000100
00000000
00000100
00000000
,
00000100
00000010
01000000
00010100
,
00110000
00000000
00000001
10000000
00000001
10000000
00000000
00000000
,
00000000
00010000
00000000
00000000
,
00000000
00010000
00000000
00000000
,
00000000
10000001
00000000
00000000
;
#NOTES:
     ds3ddx-single:
     Easy:
     Easy:
     3:
     :
00000000
00000100
00000000
00000000
,
00000000
10000000
00000000
00000000
,
00000000
00100000
00000000
00000000
,
00000000
00000001
00000000
00000000
,
00000000
00000100
00000000
00000000
,
00000000
00000001
00000000
00000000
,
00000000
00100000
00000100
00000000
,
00000010
01000000
00000010
00000000
,
00000100
00000100
00000010
00000000
,
01000000
00100000
01000000
00000000
,
00000011
00100000
00100100
00000000
,
00000010
01000000
00000010
00000000
,
00000100
00100000
00000100
00000000
,
00000010
01000000
00000010
00000000
,
00000100
00100000
00010000
00000010
,
00010000
00100000
00000100
00100000
,
00000100
00000100
00010000
01000000
,
00010000
00000100
00000100
00000011
,
00000000
00000100
00010000
01000000
,
00010000
00000100
00100000
00000100
,
00100000
00100000
00010000
00000010
,
00010000
00100000
00000100
11000000
,
00000000
00000100
00000100
01000000
,
00000010
01000000
00010000
00010000
,
10000001
00100000
01000000
00000010
,
00000100
00100000
00000100
00000000
,
00000000
00000010
01000000
00000010
,
00000010
01000000
00000010
01000000
,
01000000
00100000
00000000
00000000
,
00000000
00000010
00000000
00000000
,
00000000
00100000
00000100
00000010
,
01000000
00000010
00000010
10100000
,
00000000
00100000
01000000
00000010
,
00000100
00100000
00000101
00000100
,
00100000
00000100
00100000
00000010
,
00100000
00000100
00100000
00000100
,
01000000
00100010
00000000
00000100
,
00000100
00100000
00100000
00010000
,
00000010
10000001
00100000
00100000
,
00100000
00010000
00000100
00000100
,
00000100
00000010
01000000
00000100
,
00100000
00000001
00000001
00000000
,
00000000
00000100
00100000
01010000
,
00000000
00000010
01000000
00000101
,
00000000
00100000
00000100
00010010
,
00000000
01000000
00000010
00100000
,
00000000
10000001
00100000
00100000
,
00100000
00010000
00000100
00000100
,
00000100
00000010
01000000
00010000
,
00010000
10000000
10000000
00000000
,
00000000
00010000
00000000
00000000
,
00000000
00010000
00000000
00000000
,
00000000
10000001
00000000
00000000
;
