#TITLE:Asereje;
#SUBTITLE:;
#ARTIST:Les Ketchup Song;
#TITLETRANSLIT:;
#SUBTITLETRANSLIT:;
#ARTISTTRANSLIT:;
#GENRE:;
#CREDIT:locuuraa;
#LYRICSPATH:;
#MUSIC:Asereje.ogg;
#OFFSET:-0.240;
#SAMPLESTART:12.020;
#SAMPLELENGTH:12.000;
#SELECTABLE:YES;
#BPMS:0.000=92.500;
#STOPS:;
#KEYSOUNDS:;
#BANNER:Asereje.png;
#BACKGROUND:Asereje.png;
#CDTITLE:../CDTitles/4DSS.png;
#BGCHANGES:-14.700=Asereje.avi=1.000=0=0=1,
229.000=Asereje.png=1.000=0=0=1,
99999=-nosongbg-=1.000=0=0=0
;
#NOTES:
     ds3ddx-single:
     Hard:
     Medium:
     5:
     :
00000000
00000000
00000000
00000000
00000000
00000000
00000000
10110000
00000000
00000000
00000000
00000000
00000000
00000000
00000000
00000000
,
00000000
00010101
00000000
00000000
00000000
00000000
00000000
00000000
00000100
00000000
00000000
00100000
00000100
00000000
00100000
00000000
,
00000010
00000000
00000000
01000000
00000010
00000000
01000000
00000000
00000010
00000000
00000000
00000100
00100000
00000000
01001000
00000000
,
00000010
00000000
00000000
01000000
00000010
00000000
00110000
00000000
00000100
00000000
00000000
01000000
00000010
00000000
00100100
00000000
,
01000000
00000000
00000100
00100000
00000000
01000010
00000000
00100000
00000000
00000000
00000010
00100000
00000000
00100010
00000000
00000000
,
00000100
00000000
00000000
00100000
00000100
00000000
10100000
00000000
00000010
00000000
00000000
00000000
01000000
00000000
00000000
00000000
,
00000100
00000000
00100000
00100000
00000100
00000000
00100001
00000000
,
01000000
00000000
00000010
00000010
01000000
00000000
01000011
00000000
,
00000010
00000000
00100000
00100000
00000100
00000000
11000000
00000000
,
00000010
00000000
00000000
00000000
00100000
00000000
00000100
00000000
01000000
00000000
00000000
00000100
00100000
00000000
00000010
00000000
,
00000000
00000100
00000000
00100000
00000100
00000000
01000000
00000000
00000000
00000100
00000000
00100000
00000100
00000000
01000000
00000000
,
00000100
00000000
00000100
01000000
00000000
00000000
01000000
00000000
00000000
00000100
00000000
00100000
00000010
00000000
00100000
00000000
,
00000000
00000010
00000000
01000000
00000010
00000000
01000000
00000000
00000000
00000010
00000000
01000000
00000010
00000000
00100000
00000000
,
00000000
00000100
00000000
00100000
00000010
00000000
01000000
00000000
00000100
00000000
00000000
00000000
00100000
00000000
00000000
00000000
,
00000011
00000000
01000000
01000000
00000010
00000000
00010100
00000000
,
01000000
00000000
00000010
00000000
00000000
00000000
00100000
00000000
01000000
00000000
00000000
00000100
00000010
00000000
00000000
01000000
,
00000000
00000010
00000000
00000000
00000100
00100000
00000000
00000000
00000100
01000000
00000000
00000000
00100000
00000010
00000000
00000000
,
01000100
00100010
00000000
00000000
00100100
01000010
00000000
00000000
,
01000010
00100100
00000000
00000000
00000110
01100000
00000000
00000000
,
00000001
00000000
00000000
00000000
10000000
00000000
00000000
00000000
00000010
01000000
00000000
00000000
00100000
00000100
00000000
00000000
,
00000100
00000010
00000000
00000000
00100000
01000000
00000100
00000010
01000000
00000000
01000000
00000010
00000000
00000010
00000000
00000000
,
01000000
00000010
00100000
00000100
10100000
00000101
00100000
00000010
,
11000000
00000000
00000000
00000000
00000000
01000000
00000010
00000000
01000000
00000000
00000000
00000000
00000100
00000000
00000000
00100000
,
00000100
00000000
00100000
00000010
00000100
11000000
00000010
01000000
,
00010100
00000000
01000000
00000000
00000010
00000010
01000000
00000010
,
00010100
00000000
00000000
00000000
00000000
01000000
00000010
00000000
01000000
00000000
00000000
00000000
00000100
00000000
00000000
00100000
,
00000100
00000000
00100000
00000010
01000000
01000000
00000100
00100000
,
00000010
01000000
00000011
00000000
01000000
00000010
01000000
00000100
,
00100000
00000000
00000010
00000000
00000000
00000000
00000000
00000000
01000000
00000010
00000000
00000000
00000010
01000000
00000000
00000000
,
00000100
00100000
00000010
00100000
00000100
01000000
00000010
01000000
,
00000010
00000010
10000000
00010000
00000010
01000000
00000100
00010000
,
11000000
00000010
01000000
00010100
01000000
00000010
01000010
00100000
,
00000010
00000000
01000000
00000000
00000100
00000000
00100000
00000000
10000001
00000000
00000000
00000000
00000000
01000000
00000010
00000000
,
01000000
00000000
00000000
00000000
00000100
00000000
00000000
00100000
00000100
00000000
00000000
00000000
00100000
00000000
00000010
00000000
,
01000000
01000000
00000100
00100000
00000010
01000000
00000011
00000000
,
01000000
00000010
01000000
00000100
00100000
00000010
01000000
00000000
,
01000000
00000000
00000010
01000000
00000000
00000000
00000000
00000100
00100000
00000000
00000000
00100000
00000100
00000000
00000000
00000000
,
00100000
00000010
01000000
01000000
00000100
00100000
00000010
01000000
,
00000011
00000000
00000000
00000000
;
