#TITLE:Appartion;
#SUBTITLE:;
#ARTIST:Talesweaver;
#TITLETRANSLIT:;
#SUBTITLETRANSLIT:;
#ARTISTTRANSLIT:;
#GENRE:;
#CREDIT:locuuraa;
#LYRICSPATH:;
#MUSIC:Appartion.ogg;
#OFFSET:0.860;
#SAMPLESTART:11.640;
#SAMPLELENGTH:12.000;
#SELECTABLE:YES;
#BPMS:0.000=135.000;
#STOPS:;
#KEYSOUNDS:;
#BANNER:Appartion.png;
#BACKGROUND:Appartion.png;
#CDTITLE:../CDTitles/4DSS.png;
#BGCHANGES:-14.700=Appartion.avi=1.000=0=0=1,
229.000=Appartion.png=1.000=0=0=1,
99999=-nosongbg-=1.000=0=0=0
;
#NOTES:
     ds3ddx-single:
     Hard:
     Medium:
     6:
     :
00000000
00000000
00000000
00000000
00000000
00000000
00000000
00010000
,
00000000
00000000
00000000
00000001
00000000
00000000
00000000
10000000
,
00000000
00000000
00000000
00010000
00000000
00000000
00000000
00000001
,
00000000
00000000
00000000
10000000
00000000
00000000
00000000
00000001
,
00000000
00000000
00000000
00000000
00000000
00000000
00000000
00000000
00000000
00000000
00000000
00000000
00000000
00000000
00000000
00000000
00000000
00000000
11000000
00000000
00000000
00000000
00000000
00000000
00000000
00000000
00000000
00000000
00000100
00000000
00000000
00000000
00000000
00100000
00000000
00000000
00000000
00000000
00000000
00000000
00000000
00000000
00000000
00000000
00000000
00000000
00000000
00000000
,
00000011
00000000
00000000
11000000
00000000
00000000
00000000
00000100
00000000
00000000
00100000
00000000
00000000
00000000
00100000
00000000
,
00000000
00000010
00000000
00000010
00000000
00100000
00000000
00000010
,
00000000
00000100
00000000
01000000
00000000
00110000
00000000
00000101
,
00000000
00000000
00010000
00000000
00000000
00000000
10100000
00000000
00000000
00000000
00000010
00000000
00000010
00000000
00000000
11000000
,
00000000
00000000
00000000
00010100
00000000
00000000
00000000
00000000
00000101
00000000
00000000
01000000
00000000
00000000
00000000
00000010
,
00000000
00000000
00000000
01000000
00000000
00000000
00000000
01000010
00000000
00000000
00000000
00000100
00000000
00000000
00000000
00100100
,
00000000
00000000
00000000
00100010
00000000
00000000
00000000
01000100
00000000
00000000
00000000
00100000
00000000
00000010
00000000
00100000
,
00000000
00000000
00000000
00000010
00000000
00000000
00000000
00000000
00000000
00100000
00000000
00000000
00000000
00000000
00000000
00000010
00000000
00000000
00000000
00000000
00000000
01000000
00000000
00000000
00000100
00000000
00000000
01000000
00000000
00000000
00000100
00000000
00000000
01000000
00000000
00000000
00000100
00000000
00000000
00000000
00000000
00000000
00000000
00000000
01000000
00000000
00000000
00000000
,
00000000
00000000
00000000
00000000
00000000
00000000
00000000
00000000
00000010
00000000
00000000
00000000
00000000
00000000
00000000
00000000
00000000
00000000
00000000
00000000
00100000
00000000
00000000
00000000
00000000
00000000
00000000
00000000
00000000
00000000
00000000
00000000
00000000
00000101
00000000
00000000
00000000
00000000
00000000
00000000
00000000
00000000
00000000
00000000
00000000
10100000
00000000
00000000
,
00000000
00000000
00000000
00000100
00000000
00000000
00000000
00000110
00000000
00000000
00000000
00100000
00000000
00000000
01100000
00000000
,
00000000
00000000
00000000
00000100
00000000
00000000
00000000
01000100
00000000
00000000
00100000
00000000
00000000
00000000
00000000
00100010
,
00000000
00000000
00000000
00000000
00000000
00000000
00000000
00000000
00000000
00000000
00000000
00000000
00000100
00000000
00000000
00000000
00000000
00000000
00000000
00000000
00000000
01000010
00000000
00000000
00000000
00000000
00000000
00000000
00000000
00000000
00000000
00000000
00100000
00000000
00000000
00000000
00000000
00000000
00000000
00000000
00000010
00000000
00000000
00000000
00000000
01000000
00000000
00000000
,
00000000
00000100
00000000
00100000
00000000
00000010
00000000
01000000
00000000
00100000
00000000
00000100
00000000
01000000
00000000
00000010
,
00000000
00000100
00000000
00100000
00000000
00000010
00000000
01000000
00000000
00000100
00000000
01000000
00000000
00000010
00000000
00100000
,
00000000
01000000
00000000
00100000
00000000
01000000
00000000
00000100
00000000
00000010
00000000
01000000
00000000
00000010
00000000
00100000
,
00000000
00000100
00000000
01000000
00000010
01000000
00000010
01000000
00000010
01000000
00000010
00000000
01000000
00000000
00000000
00000100
,
00000000
00000000
00000000
10100000
00000000
00000000
00000000
00000101
00000000
00000000
00000000
01000000
00000000
00000000
00000000
00100001
,
00000000
00000000
00000000
00000100
00000000
00000000
00000000
11000101
00000000
00000000
00000000
00000000
00100000
00000000
00000000
00100101
,
00000000
00000000
00000000
00000100
00000000
01000000
00000000
00100010
00000000
00000000
00000000
00000100
00000000
00000000
00000000
00100000
,
00000000
00000000
00000000
01000000
00000000
00000000
00000000
00000010
00000000
00000000
00000000
00100000
00000000
00000100
00000000
00100000
,
00000000
00000010
00000000
00100000
00000000
00000100
00000000
00100000
00000000
00000010
00000000
01000000
00000000
00000100
00000000
00100000
,
00000000
00000010
00000000
01000000
00000000
00000100
00000000
00100000
00000000
00000010
00000000
00100000
00000000
00000100
00000000
00100000
,
00000000
01000000
00000000
00000100
00000000
01000000
00000000
00100000
00000000
00000010
00000000
00100000
00000100
00100000
00000100
00100000
,
00000100
00100000
00000100
01000000
00000010
01000000
01000010
01000000
00000010
01000000
00000010
01000000
00000010
00000000
00000000
01000000
,
00000000
00000000
00000000
00000101
00000000
00000000
00000000
11000000
00000000
00000000
00000000
00000100
00000000
00000000
00000000
00010110
,
00000000
00000000
00000000
01000000
00000000
00000100
00000000
10100011
00000000
00000000
00000000
01000000
00000000
00000000
00000000
00100101
,
00000000
00000000
00000000
01000000
00000000
00000000
00000000
11000011
00000000
00000000
00000000
00000100
00000000
01000000
00000000
00000101
,
00000000
00000000
00000000
00100000
00000000
01000000
00000000
01110000
00000000
00000000
00000000
00000100
00000000
00000000
00000000
01000000
,
00000000
00000000
00000000
00000010
00000000
01000000
00000000
00000011
00000000
00000000
00000000
00100000
00000000
00100000
00000000
00000100
,
00000000
00000000
00000000
00000010
00000000
00000010
00000000
01000000
00000000
00000000
00000000
00000100
00000000
00100000
00000000
00000101
,
00000000
00000000
00000000
01000000
00000000
00000000
00000000
00000100
00000000
00000000
00100000
00000000
00000000
00000000
00000000
00000011
,
00000000
00000000
00000000
01000000
00000000
00000000
00000000
00000100
00000000
00000000
00000000
00100000
00000000
00000000
00000000
00000000
,
00000111
00000000
00000000
00000100
00000000
00000000
00000000
11100000
00000000
00000000
00000000
00000100
00000000
00100000
00000000
00000010
,
00000000
01000000
00000000
00000100
00000000
00100000
00000000
00000010
00000000
00000100
00000000
01000000
00000000
00000100
00000000
00100000
,
00000000
00000010
00000000
00100000
00000000
00000000
01000000
00000000
00000100
00000000
00000010
00000000
00100000
00000000
00000010
00000000
,
01000000
00000010
00100000
00000100
00000010
00100000
01000000
00000100
,
00100000
00000100
01000000
00000010
01000000
00000100
00100000
00000010
,
01000000
00000100
00100000
00000100
01000000
00000010
00000100
00100000
,
00000010
00000000
00000000
01000000
00000000
00000000
00000010
00000000
00000000
01000000
00000000
00000000
00100000
00000000
00000000
00000100
00000000
00000000
00100000
00000000
01000000
00000000
00100000
00000000
,
00000100
00000010
00000100
00100000
01000000
00100000
00000010
00000000
00000000
11000000
00000000
00000000
;
#NOTES:
     ds3ddx-double:
     Club:
     Easy:
     6:
     :
0000000000000000
0000000000000000
0000000000000000
0000000000000000
,
0000000000000000
0000000000000000
0000000000000000
0000000000000000
,
0000001000000000
0000000000000000
0000000001000000
0000000000000000
,
0001010000000000
0000000000000000
0000000000110000
0000000000000000
,
0001010000000000
0000000000000000
1100000000000000
0000000000000000
,
0100000000000000
0000010000000000
0100000000000000
0000010000000000
0010000000000000
0000000000000000
0000010100000000
0000000000000000
,
0000001000000000
0000000001000000
0000000000100000
0000000000000100
0000000001000000
0000000000000000
0000000000000011
0000000000000000
,
0000000000000100
0000000001000000
0000000000100000
0000010000000000
0000001000000000
0000000000000000
1100000000000000
0000000000000000
,
0010000000000000
0000010000000000
0010000000000000
0100000000000000
0000010000000000
0000000000000000
1100000000000000
0000000000000000
,
0000010000000000
0100000000000000
0000001000000000
0010000000000000
0000010000000000
0000000000000000
1100000000000000
0000000000000000
,
0000001000000000
0000000000100000
0000000001000000
0000000000000010
0000000001000000
0000000000000000
0000000000000011
0000000000000000
,
0000000000000100
0000000000100000
0000000000000100
0000000000100000
0000000000000010
0000000000000000
0000000011000000
0000000000000000
,
0000010000000000
0000000000100000
0000010000000000
0000000000100000
0000001000000000
0000000001000000
0000001000000000
0000000000000000
,
0000010000000000
0010000000000000
0000001000000000
0000010000000000
0100000000000000
0010000000000000
0000010000000000
0000001000000000
,
0010000000000000
0000010000000000
0100000000000000
0000010000000000
0010000000000000
0000001000000000
0111000000000000
0000000000000000
,
0000001000000000
0000010000000000
0000000000100000
0000000001000000
0000000000000010
0000000001000000
0000000000000100
0000000000100000
,
0000000000000100
0000000001000000
0000000000000010
0000000000000100
0000000001000000
0000000000000000
0000000000010110
0000000000000000
,
0000000000000100
0000000001000000
0000000000100000
0000010000000000
0000001000000000
0100000000000000
0000010000000000
0010000000000000
,
0000001000000000
0100000000000000
0000010000000000
0010000000000000
0000010000000000
0000000000000000
0011010000000000
0000000000000000
,
0100000000000000
0100000000000000
0000001100000000
0100000000000000
0000010000000000
0000001000000000
0100000000000000
0000010000000000
,
0010000000000000
0000001000000000
1100000000000000
0000000000000000
0000001100000000
0000000000000000
1010000000000000
0000000000000000
,
0000010000000000
0000001000000000
0000000000000000
0000000000000000
0010000000000000
0100000000000000
0000000000000000
0000000000000000
0000000000000000
0000001000000000
0000010000000000
0000000000000000
,
0000000000000000
0000000000000000
0000000000100000
0000000001000000
0000000000000000
0000000000000000
0000000000000000
0000000000000010
0000000000000100
0000000000100000
0000000001000000
0000000000000000
,
0000000000000000
0000010000000000
0000001000000000
0000000000000000
0000000000000000
0000000000000000
0000010000000000
1100000000000000
0000000000000000
0010000000000000
0000001100000000
0000000000000000
,
0000000000000000
0000000000000000
0000000000000000
0000010000000000
1010000000000000
0000000000000000
0000000000000000
0100000000000000
0000001100000000
0000000000000000
0000010000000000
1100000000000000
,
0000000000000000
0000000000000000
0000010000000000
0000001000000000
0000000000000000
0000000000000000
0000000001000000
0000000000100000
0000000000000000
0000000000000000
0000000000000100
0000000000100000
,
0000000000000000
0000000000000000
0000000000000010
0000000011000000
0000000000000000
0000000000000000
0000000000000100
0000000010100000
0000000000000000
0000000000000000
0000000001000000
0000000000100000
,
0000000000000000
0000000000000000
0000010000000000
0000001000000000
0000000000000000
0000000000000000
0000001000000000
1100000000000000
0000000000000000
0000000000000000
0100000000000000
0000001100000000
,
0000000000000000
0000000000000000
0000000000000000
0000010000000000
1010000000000000
0000000000000000
0000000000000000
0000000000000000
0010000000000000
0000010100000000
0000000000000000
0100000000000000
,
0000001100000000
0000000000000000
0000000000000000
0000010000000000
1100000000000000
0000000000000000
0000000000000000
0010000000000000
0000001100000000
0000000000000000
0000000000000000
0010000000000000
,
0000010100000000
0000000000000000
0000000000000000
0000000000000000
0000000000000000
0000000000000000
0000001000000000
0000000000000000
1100000000000000
0000000000000000
0000000000000000
0000000000000000
0000000000000000
0000000000000000
0010000000000000
0000000000000000
0000010100000000
0000000000000000
0000000000000000
0000000000000000
0000000000000000
0010000000000000
0000000000000000
0000000000000000
,
0000010000000000
0100000000000000
0000010000000000
0010000000000000
0000001000000000
0000000000000000
0010000000000000
0000000000000000
,
0000010000000000
0010000000000000
0000010000000000
0010000000000000
0000010000000000
0010000000000000
0000010000000000
0000000000000000
,
0100000000000000
0000010000000000
0010000000000000
0000001000000000
0000010000000000
0000000000100000
0000000001000000
0000000000000100
,
0000000000100000
0000000001000000
0000000000000100
0000000001000000
0000000000100000
0000000000000101
0000000000000000
0000000000000000
,
0000000000100000
0000000000000100
0000000001000000
0000000000000010
0000000001000000
0000000000100000
0000010000000000
0000001000000000
,
0010000000000000
0000001000000000
0100000000000000
0000010000000000
0010000000000000
0000001100000000
0000000000000000
0000000000000000
,
0000010000000000
0010000000000000
0000001000000000
0000010000000000
0010000000000000
0000010000000000
0100000000000000
0000001000000000
,
0010000000000000
0000001000000000
0000010000000000
0100000000000000
0010000000000000
0000010000000000
0100000000000000
0000010000000000
,
0000001000000000
0010000000000000
0000010000000000
0100000000000000
0000001000000000
0000010000000000
0000000000100000
0000000001000000
,
0000000000000010
0000000000100000
0000000000000100
0000000000000010
0000000001000000
0000000000100000
0000000000000100
0000000000000010
,
0000000001000000
0000000000000100
0000000001000000
0000000000100000
0000010000000000
0000001000000000
0100000000000000
0010000000000000
,
0000001000000000
0000010000000000
0100000000000000
0000001000000000
0000001000000000
0100000000000000
0000001000000000
0000000000000000
,
0010000000000000
0000010000000000
0010000000000000
0000010000000000
0100000000000000
0010000000000000
0000001100000000
0000000000000000
,
0000010000000000
0000000000100000
0000000001000000
0000000000000010
0000000010100000
0000000000000000
0000000000000101
0000000000000000
;
