#TITLE:Amazing Kiss;
#SUBTITLE:;
#ARTIST:BoA;
#TITLETRANSLIT:;
#SUBTITLETRANSLIT:;
#ARTISTTRANSLIT:;
#GENRE:;
#CREDIT:locuuraa;
#LYRICSPATH:;
#MUSIC:Amazing Kiss.ogg;
#OFFSET:3.700;
#SAMPLESTART:11.240;
#SAMPLELENGTH:12.000;
#SELECTABLE:YES;
#BPMS:0.000=100.080;
#STOPS:;
#KEYSOUNDS:;
#BANNER:Amazing Kiss.png;
#BACKGROUND:Amazing Kiss.png;
#CDTITLE:../CDTitles/4DSS.png;
#BGCHANGES:-14.700=Amazing Kiss.avi=1.000=0=0=1,
229.000=Amazing Kiss.png=1.000=0=0=1,
99999=-nosongbg-=1.000=0=0=0
;
#NOTES:
     ds3ddx-single:
     Hard:
     Medium:
     3:
     :
00000000
00000000
00000000
00000000
,
00000000
00000000
00000000
00000000
,
00000000
00000000
00000010
00000000
,
00000000
00000000
00000000
00000000
00000000
01000000
00000010
00000000
,
00000000
00000000
00000000
00000000
,
00000000
00000000
00000010
00000100
,
00010010
01000000
00110000
01001000
,
00100000
00000000
00011000
00000000
01000000
00000100
00000010
00000000
,
00100001
00000000
00000000
00000000
00100100
10000001
00100100
00000000
,
00100000
00000000
00000010
01000000
,
00000000
00000000
00001000
00000000
01000000
01000000
00000010
00000000
,
00001000
00000010
00000010
01000000
,
10000000
00100000
00000101
00000000
00010000
00000000
00000000
00000000
,
00000100
01000000
00000010
11000000
,
10000000
01000010
00000000
00000011
,
11000000
01000000
00000010
00000100
,
00100000
00000000
00000101
00000000
00010000
00010000
10000000
10000000
,
10000000
00000100
00010000
00000000
00010000
00000000
00000000
00000000
,
10000000
10000001
00000000
00000000
10000000
00000000
00000000
00000000
,
00000011
00000000
00000000
00000000
00000000
00000000
00000000
00000000
01000000
00000000
00000000
00100000
00000000
00000000
00000100
00000000
,
00000000
00000010
00000000
00000000
00000001
00000000
01000000
00000000
00000000
00000000
00000000
00000000
00000000
00000000
00000000
00000000
,
11010000
00010011
00000000
01000000
,
00000010
01000000
00000010
10000000
,
10000000
00000100
00000000
10000001
,
10000101
00010000
00000000
00100000
,
00000000
00000100
00000000
00010000
,
00010000
00000000
00100000
00100000
,
10000101
00010100
00110000
00000010
,
10110000
10000101
00000100
00100000
,
00000100
00100000
00100000
00110000
,
00110000
00110000
00110000
01010000
,
00110000
00000000
00110000
00000000
00100000
00100000
00000100
00010000
,
00100000
00010000
00000100
10000000
10000000
00000000
10000000
00000000
,
00000000
10100001
01000000
10000101
,
00000010
10100001
01000000
00000100
,
00000001
00000001
10110000
00000000
00000010
00000000
10110000
00000000
,
10000101
00100000
00000100
00100001
,
00000001
00000000
00100000
00100000
00010000
00010000
00010000
00000000
,
00000000
00000000
10000100
00010100
,
00100000
00000000
00110000
00000000
00000100
00000001
00100000
00000000
,
00000000
00000000
01000000
00000000
;
#NOTES:
     ds3ddx-double:
     Club:
     Easy:
     3:
     :
0000000000000000
0000000000000000
0000000000000000
0000000000000000
,
0000000000000000
0000000000000000
0000000000000000
0000000000000000
,
0000000000000000
0000000000000000
0000001000000000
0000000000000000
,
0000000000000000
0000000000000000
0000000000000000
0000000000000000
0000000000000000
0100000000000000
0000001000000000
0000000000000000
,
0000000000000000
0000000000000000
0000000000000000
0000000000000000
,
0000000000000000
0000000000000000
0000000000000010
0000000000000100
,
0000000000010010
0000000001000000
0000000000110000
0000000001001000
,
0000000000100000
0000000000000000
0000000000011000
0000000000000000
0000000001000000
0000000000000100
0000000000000010
0000000000000000
,
0000000000100001
0000000000000000
0000000000000000
0000000000000000
0000010000100000
0000000000010000
0000010000100000
0001000000000000
,
0000001001000000
0000000000000000
0000001000000000
0100000000000000
,
0000000000000000
0000000000000000
0000100000000000
0000000000000000
0100000000000000
0100000000000000
0000001000000000
0000000000000000
,
0000100000000000
0000001000000000
0000001000000000
0100000000000000
,
1000000000000000
0010000000000000
0000010100000000
0000000000000000
0001000000000000
0000000000000000
0000000000000000
0000000000000000
,
0000000000100000
0000000001000000
0000000000000010
0000000011000000
,
0000000010000000
0000000001000010
0000000000000000
0000000000000011
,
0000000011000000
0000000001000000
0000000000000010
0000000000000100
,
0000000000100000
0000000000000000
0000010000000000
0000000000000000
0000000100000000
0000000100000000
1000000000000000
1000000000000000
,
1000000000000000
0000010000000000
0001000000000000
0000000000000000
0001000000000000
0000000000000000
0000000000000000
0000000000000000
,
1000000000000000
1000000100000000
0000000000000000
0000000000000000
1000000000000000
0000000000000000
0000000000000000
0000000000000000
,
0000001100000000
0000000000000000
0000000000000000
0000000000000000
0000000000000000
0000000000000000
0000000000000000
0000000000000000
0100000000000000
0000000000000000
0000000000000000
0010000000000000
0000000000000000
0000000000000000
0000010000000000
0000000000000000
,
0000000000000000
0000001000000000
0000000000000000
0000000000000000
0000000001000000
0000000000000000
0000000000100000
0000000000000000
0000000000000000
0000000000000000
0000000000000000
0000000000000000
0000000000000000
0000000000000000
0000000000000000
0000000000000000
,
0000000000010011
0000000011010000
0000000000000000
0000000000000010
,
0000000001000000
0000000000000010
0000000000000010
0000000010000000
,
0000000010000000
0000000000000100
0000000000000000
0001000000000000
,
0000000000010000
0001000000000000
0000000000000000
0000010000000000
,
0000000000000000
0100000000000000
0000000000000000
0001000000000000
,
0001000000000000
0000000000000000
0010000000000000
0010000000000000
,
1000010100000000
0001010000000000
0011000000000000
0000001000000000
,
1011000000000000
1000010100000000
0000010000000000
0010000000000000
,
0000010000000000
0010000000000000
0010000000000000
0000010100000000
,
0000001000000000
0000000001000000
0000000000110000
0000000000000100
,
0000000001010000
0000000000000000
0000000000000101
0000000000000000
0000000000100000
0000000000100000
0000000000000100
0000000000010000
,
0000000000100000
0000000000010000
0000000000000100
0000000010000000
0000000010000000
0000000000000000
0000000000000001
0000000000000000
,
0000000000000000
0000000010100001
0000000001000000
0000010000000000
,
0010000000000000
1000001100000000
0100000000000000
0000010000000000
,
0000000100000000
0000000100000000
1011000000000000
0000000000000000
0000001000000000
0000000000000000
1011000000000000
0000000000000000
,
1000010100000000
0010000000000000
0000010000000000
0010000100000000
,
0000000100000000
0000000000000000
0010000000000000
0010000000000000
0001000000000000
0001000000000000
0001000000000000
0000000000000000
,
0000000000000000
0000000000000000
0000010000000000
0000000001000000
,
0000000000100000
0000000000000000
0000000000010100
0000000000000000
0000000000100000
0000000000000001
0000000000100000
0000000000000000
,
0000000000000000
0000000000000000
0000000001000000
0000000000000000
;
#NOTES:
     ds3ddx-single:
     Easy:
     Easy:
     3:
     :
00000000
00000000
00000000
00000000
,
00000000
00000000
00000000
00000000
,
00000000
00000000
00000010
00000000
,
00000000
00000000
00000000
00000000
00000000
01000000
00000010
00000000
,
00000000
00000000
00000000
00000000
,
00000000
00000000
00000010
00000100
,
00000010
01000000
00100000
00000000
,
00100000
00000000
01000000
00000000
,
00100001
00000000
00100100
00000100
,
00100000
00000000
00000010
00000000
,
00000000
00001000
01000000
00000010
,
00001000
00000010
00000010
01000000
,
00000000
00000001
00010000
00000000
,
00000100
01000000
00000010
10000000
,
10000000
01000010
00000000
00000010
,
01000000
01000000
00000010
00000100
,
00100000
00000001
00010000
10000000
,
10000000
00000000
00010000
00000000
,
10000000
00000000
10000000
00000000
,
00000011
00000000
01000000
00000000
,
00000000
00000010
00000000
00000000
00000000
00000000
00000000
00000000
01000000
00000000
00000000
00000000
00000000
00000000
00000000
00000000
,
00010000
00010000
00000000
01000000
,
00000010
01000000
00000010
10000000
,
10000000
00000100
00000000
10000001
,
00000000
00010000
00000000
00100000
,
00000000
00000100
00000000
00010000
,
00010000
00000000
00100000
00100000
,
00000100
00000100
00000000
00000010
,
00100000
00000000
00000100
00100000
,
00000100
00100000
00000000
00010000
,
00000000
00010000
00000000
01010000
,
00000000
00110000
00000000
00000100
,
00000000
00000000
10000000
10000000
,
00000000
00000000
01000000
00000101
,
00000000
00100000
01000000
00000100
,
00000000
10000000
00000010
00000000
,
10000001
00100000
00000100
00100000
,
00000000
00100000
00010000
00000000
,
00000000
00000000
10000100
00000000
,
00100000
00000000
00010000
00000000
00000000
00000001
00100000
00000000
,
00000000
00000000
01000000
00000000
;
