#TITLE:Alzana (你知道的!);
#SUBTITLE:;
#ARTIST:蔡利娜;
#TITLETRANSLIT:Alzana (You know!);
#SUBTITLETRANSLIT:;
#ARTISTTRANSLIT:Cai Lina;
#GENRE:;
#CREDIT:locuuraa;
#LYRICSPATH:;
#MUSIC:Alzana (你知道的!).ogg;
#OFFSET:3.560;
#SAMPLESTART:11.220;
#SAMPLELENGTH:12.000;
#SELECTABLE:YES;
#BPMS:0.000=110.270;
#STOPS:;
#KEYSOUNDS:;
#BANNER:Alzana (你知道的!).png;
#BACKGROUND:Alzana (你知道的!).png;
#CDTITLE:../CDTitles/4DSS.png;
#BGCHANGES:-14.700=Alzana (你知道的!).avi=1.000=0=0=1,
229.000=Alzana (你知道的!).png=1.000=0=0=1,
99999=-nosongbg-=1.000=0=0=0
;
#NOTES:
     ds3ddx-single:
     Hard:
     Medium:
     4:
     :
00000000
00000000
00000000
00000000
,
00000000
00000000
00000000
00000000
,
00000000
00010000
11000011
00000001
,
00000011
00000000
00000000
00000010
,
00000000
00000000
00010000
00000000
10000001
00100000
00000000
00000000
,
00000000
00000000
00000000
00000000
,
00000000
00100100
00000000
00100000
,
00100100
00000000
01000000
01000000
00100000
00000000
00100000
00000000
,
10100101
00110000
01001000
10000000
,
10000000
00000000
00110100
00000000
,
10100101
00110000
00000011
00000000
,
00010000
00000000
00010000
10000001
00001000
00010000
00000100
00000000
,
00100100
10000100
00000000
00000000
,
00100000
10000101
00000000
00000000
,
00000000
00000010
00000001
00000010
,
10000000
00000000
00000101
00100000
,
00010000
00000000
00000000
00000000
,
01000000
00000010
00000001
00000010
,
01000010
11000011
10000001
00000000
,
00000000
01010000
00000000
01000000
,
00000010
11000000
00000000
10000100
,
00000000
00010100
00000000
01000001
,
00000000
00000000
00100100
00000000
00000000
00000000
00010000
00010000
,
00010000
00010000
00000100
00000000
00000100
00000000
00010000
00000000
,
01000000
00100000
00000000
00000000
00100000
00000000
00010100
00000000
,
00100000
00010000
00000101
00110000
,
00000000
00110000
00000000
00100000
,
00000100
00100000
00100000
00110100
,
00000000
00000000
00100000
00100000
,
00010000
00000000
00010100
10000000
10000000
00010000
00100000
00000000
,
00010000
00100101
10000000
00010000
,
00010000
00000000
01010000
10000000
00000000
01000000
00000010
00000010
,
00000000
00000010
00000000
01010000
,
00000000
00000000
00000011
11000000
00000000
00000000
01000000
00000000
,
00000000
11000010
11000010
00000100
,
00010000
00100000
00110100
00000000
,
01000010
00000000
00000000
00000000
00000000
00000000
10000001
10000001
,
00000010
00000000
01000000
00000000
10000000
00000000
10000001
10000001
,
00000000
00010000
00000001
10000000
,
00000001
00010000
00000000
00000100
,
00000010
00000000
00000000
00000000
,
00000000
00000100
00000100
00000100
,
00100000
10100101
00000000
00100000
,
00010000
00000100
00000000
00000000
,
00000000
00000000
00000000
00000000
00010000
00000000
00000100
00010000
,
00100000
00000100
00000110
00010100
,
00100100
00000001
00000000
01000000
,
00000000
00000000
10000000
10001000
00000000
00000000
00000001
00000000
,
00000000
00000010
00010100
00011010
,
00010000
10100000
00000000
00110100
,
00000000
11000011
01010000
00000011
,
00000000
00000000
00010000
00000000
00010000
10000001
00001000
00010000
,
00000100
00100100
00000100
00010000
,
00000000
00010000
00000000
00000000
;
#NOTES:
     ds3ddx-single:
     Easy:
     Easy:
     4:
     :
00000000
00000000
00000000
00000000
,
00000000
00000000
00000000
00000000
,
00000000
00010000
01000000
00000000
,
00000011
00000000
00000000
00000010
,
00000000
00000000
00010000
00000000
00000000
00100000
00000000
00000000
,
00000000
00000000
00000000
00000000
,
00000000
00100100
00000000
00100000
,
00100100
01000000
00100000
00100000
,
00000101
00110000
01000000
00000000
,
10000000
00000000
00100100
00000000
,
00000100
00100000
00000010
00000000
,
00010000
00000000
00001000
00000100
,
00100000
10000100
00000000
00000000
,
00100000
10000001
00000000
00000000
,
00000000
00000010
00000001
00000010
,
10000000
00000000
00000101
00100000
,
00010000
00000000
00000000
00000000
,
01000000
00000010
00000001
00000010
,
01000010
00000000
10000001
00000000
,
00000000
01010000
00000000
01000000
,
00000010
11000000
00000000
10000100
,
00000000
00010000
00000000
01000001
,
00000000
00100100
00000000
00010000
,
00000000
00000100
00000100
00010000
,
01000000
00000000
00100000
00010100
,
00100000
00010000
00000101
00010000
,
00000000
00110000
00000000
00100000
,
00000100
00100000
00000000
00110100
,
00000000
00000000
00100000
00100000
,
00010000
00000100
00000000
00100000
,
00010000
00000001
10000000
00010000
,
00010000
00000000
01000000
00000000
00000000
01000000
00000010
00000000
,
00000000
00000010
00000000
01010000
,
00000000
00000011
00000000
01000000
,
00000000
11000000
00000010
00000100
,
00010000
00100000
00100000
00000000
,
01000010
00000000
00000000
00000001
,
00000010
01000000
10000000
00000001
,
00000000
00010000
00000001
10000000
,
00000001
00010000
00000000
00000100
,
00000010
00000000
00000000
00000000
,
00000000
00000100
00000100
00000100
,
00100000
00000101
00000000
00100000
,
00010000
00000100
00000000
00000000
,
00000000
00000000
00010000
00000100
,
00100000
00000100
00000010
00000100
,
00100000
00000001
00000000
01000000
,
00000000
10000000
00000000
00000001
,
00000000
00000010
00000100
00000010
,
00010000
10100000
00000000
00100100
,
00000000
01000010
01000000
00000011
,
00000000
00010000
00010000
00000000
,
00000100
00100000
00000100
00010000
,
00000000
00010000
00000000
00000000
;
#NOTES:
     ds3ddx-double:
     Club:
     Easy:
     4:
     :
0000000000000000
0000000000000000
0000000000000000
0000000000000000
,
0000000000000000
0000000000000000
0000000000000000
0000000000000000
,
0000000000000000
0001000000000000
1100001100000000
0000000100000000
,
0000001100000000
0000000000000000
0000000000000000
0000001000000000
,
0000000000000000
0000000000100000
0000000010000001
0000000000000000
,
0000000000000000
0000000000000000
0000000000000000
0000000000000000
,
0000000000000000
0000000000100100
0000000000000000
0000000000100000
,
0000000000100100
0000000000000000
0000000001000000
0000000001000000
0000000000100000
0000000000000000
0000000000100000
0000000000000000
,
0000000000100100
0000000000100000
0000010000000000
0000001000000000
,
1000000000000000
0000000000000000
0011010000000000
0000000000000000
,
1010010100000000
0011000000000000
0000001100000000
0000000000000000
,
0001000000000000
0000000000000000
0001000000000000
1000000100000000
0000100000000000
0001000000000000
0000010000000000
0000000000000000
,
0010010000000000
1000010000000000
0000000000000000
0000000000000000
,
0000000000100000
0000000010000101
0000000000000000
0000000000000000
,
0000000000000000
0000000000000010
0000000000000001
0000000000000010
,
0000000010000000
0000000000000000
0000000000000101
0000000000100000
,
0000000000010000
0000000000000000
0000000000000000
0000000000000000
,
0000000001000000
0000000000000010
0000000000000001
0000000000000010
,
0000000001000000
0000000000100000
0001010000000000
0000000000000000
,
0000000000000000
0101000000000000
0000000000000000
0100000000000000
,
0000001000000000
1100000000000000
0000000000000000
1000010000000000
,
0000000000000000
0001010000000000
0000000000000000
0100000100000000
,
0000000000000000
0000000000000000
0010010000000000
0000000000000000
0000000000000000
0000000000000000
0001000000000000
0001000000000000
,
0001000000000000
0001000000000000
0000010000000000
0000000000000000
0000010000000000
0000000000000000
0000000001000000
0000000000000000
,
0000000000100000
0000000000000100
0000000000000000
0000000000000000
0000000000100000
0000000000000000
0000000000010100
0000000000000000
,
0000000000100000
0000000000010000
0000000000000101
0000000000110000
,
0000000000000000
0000001000000000
0000000000000000
0010000000000000
,
0000010000000000
0010000000000000
0010000000000000
0011010000000000
,
0000000000000000
0000000000000000
0010000000000000
0010000000000000
,
0001000000000000
0000000000000000
0001010000000000
1000000000000000
1000000000000000
0001000000000000
0010000000000000
0000000000000000
,
0001000000000000
0010010100000000
0000001000000000
0000000000100000
,
0000000001000000
0000000000000000
0000000000000010
0000000000000000
0000000000000000
0000000001000000
0000000000000010
0000000000000010
,
0000000000000000
0000000000000010
0000000000000000
0000000001010000
,
0000000000000000
0000000000000000
0000001000000000
1100000000000000
0000000000000000
0000000000000000
0100000000000000
0000000000000000
,
0000000000000000
1100001000000000
1100001000000000
0000010000000000
,
0001000000000000
0010000000000000
0011010000000000
0000000000000000
,
0100001000000000
0000000000000000
0000000000000000
0000000000000000
0000000000000000
0000000000000000
1000000100000000
1000000100000000
,
0000001000000000
0000000000000000
0100000000000000
0000000000000000
1000000000000000
0000000000000000
1000000100000000
1000000100000000
,
0000000000000000
0000010000000000
0000000000100000
0000010000000000
,
0000000001000000
0000000000000011
0000000000000000
0000010000000000
,
0000001000000000
0000000000000000
0000000000000000
0000000000000000
,
0000000000000000
0000010000000000
0000010000000000
0000010000000000
,
0010000000000000
1010010100000000
0000000000000000
0010000000000000
,
0001000000000000
0000010000000000
0000000000000000
0000000000000000
,
0000000000000000
0000000000000000
0000000000000000
0000000000000000
0001000000000000
0000000000000000
0000010000000000
0001000000000000
,
0010000000000000
0000010000000000
0000011000000000
0001010000000000
,
0010010000000000
0000000100000000
0000000000000000
0100000000000000
,
0000000000000000
0000000000000000
1000000000000000
1000100000000000
0000000000000000
0000000000000000
0000000100000000
0000000000000000
,
0000000000000000
0000001000000000
0001010000000000
0001101000000000
,
0001000000000000
1010000000000000
0000000000000000
0011010000000000
,
0000000000000000
0000001000000000
0000000001000000
0000000000100000
,
0000000000000000
0000000000000000
0000000000010000
0000000000000000
0000000000010000
0000000010000001
0000000000001000
0000000000010000
,
0000000000000100
0000000000100100
0000000000000100
0000000000010000
,
0000000000000000
0000000000010000
0000000000000000
0000000000000000
;
