#TITLE:All For You;
#SUBTITLE:;
#ARTIST:Janet Jackson;
#TITLETRANSLIT:;
#SUBTITLETRANSLIT:;
#ARTISTTRANSLIT:;
#GENRE:;
#CREDIT:locuuraa;
#LYRICSPATH:;
#MUSIC:All For You.ogg;
#OFFSET:3.460;
#SAMPLESTART:11.260;
#SAMPLELENGTH:12.000;
#SELECTABLE:YES;
#BPMS:0.000=113.510;
#STOPS:;
#KEYSOUNDS:;
#BANNER:All For You.png;
#BACKGROUND:All For You.png;
#CDTITLE:../CDTitles/4DSS.png;
#BGCHANGES:-14.700=All For You.avi=1.000=0=0=1,
229.000=All For You.png=1.000=0=0=1,
99999=-nosongbg-=1.000=0=0=0
;
#NOTES:
     ds3ddx-single:
     Hard:
     Medium:
     2:
     :
00000000
00000000
00000000
00000000
,
00000000
00000000
00000000
00000000
,
00000000
00000000
00000000
00000000
,
00000000
00000000
00000000
00000000
,
00000000
00000000
00000000
00000000
,
00000000
00000000
00000000
00000000
,
00000000
00000000
00000000
00000000
,
00000010
00000010
00000010
00000010
,
00000010
00000010
00000010
00000100
,
00000010
00000010
01000000
00010000
,
00000000
00000000
00000000
00000000
,
10000000
00000000
11000000
00000000
,
00010000
00000001
01000010
00000000
01000000
00100000
00010000
00000000
,
10000000
00001000
00000000
01000000
,
01000000
00100000
00010000
00100000
,
00010000
00100000
00010100
00000010
,
00100100
00100100
01000000
00000000
,
10100000
00000100
10100000
00000100
,
00010000
00000000
00010000
00000000
,
01000000
00110000
00000000
00010000
,
01000000
00100001
00000000
00000100
,
00000001
10000000
00100100
00000000
01000000
00000000
00010000
00000000
,
00000100
00100000
00000100
00010000
,
00100000
00100000
10100101
00100001
,
00000101
00100000
00100000
00100000
,
01010000
00100000
00100000
00000000
,
10000000
10000000
00110000
10000001
,
00010000
01000000
00010000
10000000
,
00100000
00000000
00110000
00000000
,
00000101
00000100
00100000
00010000
,
00100000
00000000
01000000
01000000
00110000
00000000
00100000
00000000
,
01000000
00100000
00100000
00100000
,
00000101
00100000
00000101
00000000
00000001
00000000
00000100
00000000
,
00000100
00000000
00100000
00100000
00100000
00000000
00000100
00000000
,
00100000
00000000
00000000
00000000
00010000
00000000
00000000
00000000
00010100
00000000
00000000
00000000
00010000
10000000
00000000
00000000
,
00000000
01000000
10100000
00010100
,
10000100
10100000
00010000
00000000
,
00000100
00100000
10000001
00000000
00100000
00000000
00010000
00000000
,
00000100
00000010
00001000
00000010
,
00000001
10000000
00010000
00000000
00100100
00000000
00010000
00000000
,
10000000
00000010
00100000
00010000
,
10000100
00000001
00100000
00000010
,
10000000
00000001
00010000
00000000
00000000
00000000
00000001
00000000
,
00000001
00000001
00000000
10000001
,
00100100
10000001
00010000
00110000
,
00000000
00100000
00000100
00100000
,
00100000
00010000
01000000
00010000
,
00110000
00110000
10000100
10000000
,
00010000
00010000
00010000
00010000
,
00100000
00000000
00000100
00100000
,
00010100
00000000
00010000
00000000
;
#NOTES:
     ds3ddx-single:
     Easy:
     Easy:
     3:
     :
00000000
00000000
00000000
00000000
,
00000000
00000000
00000000
00000000
,
00000000
00000000
00000000
00000000
,
00000000
00000000
00000000
00000000
,
00000000
00000000
00000000
00000000
,
00000000
00000000
00000000
00000000
,
00000000
00000000
00000000
00000000
,
00000010
00000000
00000010
00000000
,
00000010
00000000
00000010
00000100
,
00000010
00000000
01000000
00010000
,
00000000
00000000
00000000
00000000
,
10000000
00000000
11000000
00000000
,
00010000
01000010
00000000
00010000
,
10000000
00001000
00000000
01000000
,
01000000
00100000
00000000
00100000
,
00010000
00100000
00010100
00000010
,
00000100
00100000
01000000
00000000
,
10100000
00000100
00100000
00000100
,
00010000
00000000
00010000
00000000
,
01000000
00010000
00000000
00010000
,
01000000
00100001
00000000
00000100
,
00000001
00100100
01000000
00010000
,
00000100
00100000
00000100
00010000
,
00100000
00100000
00100100
00000001
,
00000101
00100000
00000000
00100000
,
01000000
00100000
00100000
00000000
,
10000000
10000000
00010000
10000001
,
00010000
01000000
00010000
10000000
,
00100000
00000000
00110000
00000000
,
00000101
00000100
00100000
00000000
,
00100000
01000000
00010000
00100000
,
01000000
00100000
00100000
00100000
,
00000100
00100000
00000100
00000000
00000001
00000000
00000100
00000000
,
00000100
00100000
00000000
00000100
,
00100000
00010000
00010100
00010000
,
00000000
01000000
10100000
00000100
,
00000100
00100000
00010000
00000000
,
00000100
10000001
00100000
00010000
,
00000100
00000010
00001000
00000010
,
00000001
00010000
00000100
00010000
,
10000000
00000010
00100000
00010000
,
10000100
00000001
00100000
00000010
,
10000000
00010000
00000000
00000001
,
00000001
00000001
00000000
10000001
,
00100100
10000001
00000000
00110000
,
00000000
00100000
00000100
00100000
,
00100000
00010000
01000000
00010000
,
00000000
00110000
00000100
00000001
,
00010000
00000000
00010000
00000000
,
00100000
00000000
00000100
00100000
,
00010100
00000000
00010000
00000000
;
#NOTES:
     ds3ddx-double:
     Club:
     Easy:
     3:
     :
0000000000000000
0000000000000000
0000000000000000
0000000000000000
,
0000000000000000
0000000000000000
0000000000000000
0000000000000000
,
0000000000000000
0000000000000000
0000000000000000
0000000000000000
,
0000000000000000
0000000000000000
0000000000000000
0000000000000000
,
0000000000000000
0000000000000000
0000000000000000
0000000000000000
,
0000000000000000
0000000000000000
0000000000000000
0000000000000000
,
0000000000000000
0000000000000000
0000000000000000
0000000000000000
,
0000001000000000
0000001000000000
0000000001000000
0000000001000000
,
0000001000000000
0000001000000000
0000001000000000
0000010000000000
,
0000000001000000
0000000001000000
0100000000000000
0001000000000000
,
0000000000000000
0000000000000000
0000000000000000
0000000000000000
,
1000000000000000
0000000000000000
1100000000000000
0000000000000000
,
0001000000000000
0000000100000000
0100001000000000
0000000000000000
0100000000000000
0010000000000000
0001000000000000
0000000000000000
,
1000000000000000
0000100000000000
0000000000000000
0100000000000000
,
0100000000000000
0010000000000000
0001000000000000
0010000000000000
,
0001000000000000
0010000000000000
0001010000000000
0000001000000000
,
0010010000000000
0010010000000000
0100000000000000
0000000000000000
,
1010000000000000
0000010000000000
0000000000100000
0000010000000000
,
0000000000010000
0000000000000000
0001000000000000
0000000000000000
,
0000000001000000
0000000001110000
0000000000000000
0000000000010000
,
0000000001000000
0000000000100001
0000000000000000
0000000000000100
,
0000000001000000
0000010000000000
0000001000000000
0001000000000000
,
0000010000000000
0010000000000000
0000010000000000
0001000000000000
,
0010000000000000
0010000000000000
1010010100000000
0010000000000000
,
0000010000000000
0000000000100000
0000000001000000
0000000000000100
,
0000000000000010
0000000000100000
0000000000100000
0000000000000000
,
0000000000000001
0000000000000001
0000000000110000
0000000010000001
,
0000000000010000
0000000001000000
0000010000000000
1000000000000000
,
0010000000000000
0000000000000000
0011000000000000
0000000000000000
,
0000010100000000
0000010000000000
0010000000000000
0001000000000000
,
0010000000000000
0000000000000000
0100000000000000
0100000000000000
0011000000000000
0000000000000000
0010000000000000
0000000000000000
,
0100000000000000
0010000000000000
0010000000000000
0010000000000000
,
0000010100000000
0010000000000000
0000010100000000
0000000000000000
0000001000000000
0000000000000000
0000010000000000
0000000000000000
,
0000000000100000
0000000000000000
0000000001000000
0000000000000010
0000000000000010
0000000000000000
0000000000000100
0000000000000000
,
0000000000100000
0000000000010000
0000000000010100
0000000000010000
,
0000000000000000
0000000001000000
0000000010100000
0000000000000010
,
0000000001000000
0000010000000000
0000001000000000
0000000000000000
,
0000010000000000
0010000000000000
1000000100000000
0000000000000000
0010000000000000
0000000000000000
0001000000000000
0000000000000000
,
0000010000000000
0000001000000000
0000100000000000
0000001000000000
,
0000000100000000
1000000000000000
0001000000000000
0000000000000000
0010010000000000
0000000000000000
0001000000000000
0000000000000000
,
1000000000000000
0000001000000000
0010000000000000
0000001000000000
,
0000000000100000
0000000001000000
0000000000100000
0000000000000010
,
0000000010000000
0000000000000001
0000000000010000
0000000000000000
0000000000000000
0000000000000000
0000000000000001
0000000000000000
,
0000000000000001
0000000000000001
0000000000000000
0000000010000001
,
0000000000100000
0000000001000000
0001000000000000
0011000000000000
,
0000000000000000
0010000000000000
0000010000000000
0010000000000000
,
0010000000000000
0001000000000000
0100000000000000
0001000000000000
,
0011000000000000
0011000000000000
1000010000000000
1000000000000000
,
0001000000000000
0001000000000000
0001000000000000
0001000000000000
,
0010000000000000
0000000000000000
0000000000100000
0000000000100000
,
0000000000010100
0000000000000000
0000000000010000
0000000000000000
;
