#TITLE:AGAIN;
#SUBTITLE:;
#ARTIST:Jewelry;
#TITLETRANSLIT:;
#SUBTITLETRANSLIT:;
#ARTISTTRANSLIT:;
#GENRE:;
#CREDIT:locuuraa;
#LYRICSPATH:;
#MUSIC:AGAIN.ogg;
#OFFSET:2.000;
#SAMPLESTART:11.300;
#SAMPLELENGTH:12.000;
#SELECTABLE:YES;
#BPMS:0.000=105.990;
#STOPS:;
#KEYSOUNDS:;
#BANNER:AGAIN.png;
#BACKGROUND:AGAIN.png;
#CDTITLE:../CDTitles/4DSS.png;
#BGCHANGES:-14.700=AGAIN.avi=1.000=0=0=1,
229.000=AGAIN.png=1.000=0=0=1,
99999=-nosongbg-=1.000=0=0=0
;
#NOTES:
     ds3ddx-single:
     Hard:
     Medium:
     3:
     :
00000000
00000000
00000000
00000000
,
00000000
00000000
00000000
00000000
,
00000000
00000000
00000000
00000000
,
00000000
00000000
00000000
00000000
,
00001000
10000000
00000000
00000000
10000011
00000000
00000000
00000000
,
00000000
00000000
00000000
00000000
,
10000000
10000000
00000000
00000000
11000001
00000000
00000000
00000000
,
00000000
00000000
00000000
00000000
,
00100001
00000000
10000100
00000000
,
00100001
00000000
00000000
00000000
,
00010010
01000000
00000010
01000010
,
10000000
00000000
01000000
00000000
00000001
00001000
01000000
00000000
,
01000000
00000010
01000000
00110000
,
00100000
00000000
00100000
00100100
,
00000000
00000100
00000100
00000100
,
00000001
00000001
00000001
00000001
00010000
00000000
00010000
00000000
,
00000001
00010000
00010000
00110000
,
00010010
01000001
10000000
00000000
,
10000000
00000001
00000000
00000000
00000000
00000000
00000000
00000000
,
01000010
00000000
00000000
00000000
,
01000000
01000000
00100000
00110000
,
10000001
00000000
00010000
00000000
00000000
00000000
00000000
00100100
,
00000000
10100001
00000100
00100000
00000000
00010000
10000000
00010000
,
00000000
00000000
00000000
00000000
,
00000000
00000000
00000000
00000000
,
00000000
00000000
00000000
00000000
00000000
01000001
10000100
00000000
,
10100101
00010000
00000000
00000000
00000000
01010000
00000000
11000001
,
00000000
00000000
00000011
11000000
,
00000011
11000000
00010010
00000100
,
10100000
00000101
10100000
00000101
,
00110000
00000000
00100000
00000000
00000000
01000000
00100000
00000000
,
00100000
00000100
00100000
10000101
,
00000100
00100000
00000100
11000001
,
00000000
00000000
00110000
10000001
00100000
00000000
00010100
00010000
,
00000001
00000000
00100011
00010100
,
00000000
00000000
10100011
00000000
00000001
10000000
00010000
00010000
,
00010000
00000000
00000000
00000000
,
00000000
00010000
00100000
00100000
,
00000000
00000000
00000100
00000000
00000000
00000000
00100000
00100000
,
01000000
00000000
00000010
00100000
00000010
00000000
01000000
01000000
,
01000000
00000000
00000001
00000000
01000010
00000000
01000000
01000000
,
00010100
00000000
00100100
00000000
,
00000000
10000000
00000000
00010000
,
00010010
01000000
00000000
00000000
,
10000001
00110000
00010100
10100001
,
00010000
10100000
01000000
00110000
,
00000000
00010000
00010000
00000000
,
01000000
00000000
10000001
00000000
,
00000000
00000000
01000010
00000000
,
00000000
10000001
00000000
00000000
;
#NOTES:
     ds3ddx-single:
     Easy:
     Easy:
     2:
     :
00000000
00000000
00000000
00000000
,
00000000
00000000
00000000
00000000
,
00000000
00000000
00000000
00000000
,
00000000
00000000
00000000
00000000
,
00000000
00000000
00001000
00000000
,
10000011
00000000
00000000
00000000
,
00000000
00000000
10000000
00000000
,
11000001
00000000
00000000
00000000
,
00000000
00000000
00100001
00000000
,
10000100
00000000
00100001
00000000
,
00000000
00000000
00010010
01000000
,
00000010
01000010
10000000
01000000
,
00000000
01000000
01000000
00000010
,
01000000
00000000
00100000
00000000
,
00100000
00100100
00000000
00000100
,
00000000
00000100
00000001
00000000
,
00010000
00010000
00000001
00010000
,
00010000
00100000
00000010
00000001
,
10000000
00000000
00000000
00000000
10000000
00000001
00000000
00000000
,
00000000
00000000
01000010
00000000
,
00000000
00000000
01000000
01000000
,
00100000
00110000
10000001
00010000
,
00000000
00000000
00000000
00100000
00000000
10000001
00000000
00000000
,
00000000
00010000
00000000
00010000
00000000
00000000
00000000
00000000
,
00000000
00000000
00000000
00000000
,
00000000
00000000
00000000
00000000
,
00000000
00000100
00100100
00000000
,
00000000
01010000
00000000
10000001
00000000
00000000
00000000
00000000
,
00000010
01000000
00000010
01000000
,
00000010
00000100
10000000
00000001
,
10000000
00000001
00010000
00100000
,
00000000
00100000
00100000
00000100
,
00100000
00000100
00000100
00100000
,
00000100
10000001
00000000
00010000
,
00100000
00010000
00000001
00000000
,
00100000
00000100
00000000
00100010
,
00000000
00010000
00010000
00000000
,
00000000
00000000
00000000
00010000
,
00100000
00100000
00000000
00000100
,
00000000
00000000
00100000
00000000
01000000
00000000
00000010
00100000
,
00000010
01000000
01000000
00000001
,
01000010
01000000
00010100
00000000
,
00100100
00000000
00000000
10000000
,
00000000
00010000
00010010
01000000
,
00000000
00000000
10000001
00100000
,
00000100
10000001
00010000
10000000
,
01000000
00100000
00000000
00010000
,
00010000
00000000
01000000
00000000
,
10000001
00000000
00000000
00000000
,
01000010
00000000
00000000
10000001
;
#NOTES:
     ds3ddx-double:
     Club:
     Easy:
     3:
     :
0000000000000000
0000000000000000
0000000000000000
0000000000000000
,
0000000000000000
0000000000000000
0000000000000000
0000000000000000
,
0000000000000000
0000000000000000
0000000000000000
0000000000000000
,
0000000000000000
0000000000000000
0000000000000000
0000000000000000
,
0000000000000000
0000000000000000
0000000000000000
0000000000000000
0000100000000000
1000000000000000
0000000000000000
0000000000000000
,
1000001100000000
0000000000000000
0000000000000000
0000000000000000
,
0000000000000000
0000000000000000
0000000000000000
0000000000000000
1000000000000000
1000000000000000
0000000000000000
0000000000000000
,
1100000100000000
0000000000000000
0000000000000000
0000000000000000
,
0000000000000000
0000000000000000
0010000100000000
0000000000000000
,
1000010000000000
0000000000000000
0010000100000000
0000000000000000
,
0000000000000000
0000000000000000
0001001000000000
0100000000000000
,
0000001000000000
0100001000000000
1000000000000000
0100000000000000
,
0000000100000000
0000100000000000
0100000000000000
0000000000000000
0100000000000000
0000000000000000
0000001000000000
0000000000000000
,
0100000000000000
0011000000000000
0010000000000000
0000000000000000
,
0010000000000000
0010010000000000
0000000000000000
0000010000000000
,
0000000000100000
0000000000000000
0000000001000000
0000000000000000
0000000000000000
0000000000000001
0000000000000001
0000000000000001
,
0000000000010000
0000000000010000
0000000000000001
0000000000010000
,
0000000000010000
0000000000100000
0000001000000000
0100000100000000
,
1000000000000000
0000000000000000
0000000000000000
0000000000000000
1000000000000000
0000000100000000
0000000000000000
0000000000000000
,
0000000000000000
0000000000000000
0100001000000000
0000000000000000
,
0000000000000000
0000000000000000
0100000000000000
0100000000000000
,
0010000000000000
0011000000000000
1000000100000000
0001000000000000
,
0000000000000000
0000000000000000
0000000000000000
0010010000000000
0000000000000000
1010000100000000
0000010000000000
0010000000000000
,
0000000000000000
0001000000000000
1000000000000000
0001000000000000
0000000000000000
0000000000000000
0000000000000000
0000000000000000
,
0000000000000000
0000000000000000
0000000000000000
0000000000000000
,
0000000000000000
0000000000000000
0000000000000000
0000000000000000
,
0000000000000000
0000000001000001
0000000010000100
0000000000000000
0000000010100101
0000000000010000
0000000000000000
0000000000000000
,
0000000000000000
0000000001010000
0000000000000000
0000000011000001
0000000000000000
0000000000000000
0000000000000000
0000000000000000
,
0000000000000011
0000000011000000
0000000000000011
0000000011000000
,
0000000000010010
0000000000000100
0000000010100000
0000000000000101
,
0000000000100000
0000000000000101
0000000000110000
0000000000100000
,
0000000000000000
0000000001000000
0000000000100000
0000000000000000
0000000000100000
0000000000000000
0000000000000100
0000000000000000
,
0000000000100000
0000010000000000
0000010000000000
0010000000000000
,
0000010000000000
0000000000000000
1100000100000000
0000000000000000
0000000000000000
0000000000000000
0011000000000000
1000000100000000
,
0010000000000000
0000000000000000
0001010000000000
0001000000000000
0000000100000000
0000000000000000
0000000000000000
0000000000000000
,
0010001100000000
0001010000000000
0000000000000000
1010001100000000
,
0000000100000000
1000000000000000
0001000000000000
0001000000000000
0001000000000000
0000000000000000
0000000000000000
0000000000000000
,
0000000000000000
0000000000000000
0000000000000000
0001000000000000
,
0010000000000000
0010000000000000
0000000000000000
0000010000000000
,
0000000000000000
0000000000000000
0010000000000000
0010000000000000
0100000000000000
0000000000000000
0000001000000000
0010000000000000
,
0000001000000000
0000000000000000
0000000001000000
0000000001000000
0000000001000000
0000000000000000
0000000000000001
0000000000000000
,
0000000001000010
0000000000000000
0000000001000000
0000000001000000
0000000000010100
0000000000000000
0000000000000000
0000000000000000
,
0000000000100100
0000000000000000
0000000000000000
0000000010000000
,
0000000000000000
0000000000010000
0000000000010000
0000000001000000
,
0000000000000000
0000000000000000
1000000100000000
0011000000000000
,
0001010000000000
1010000100000000
0001000000000000
1010000000000000
,
0100000000000000
0011000000000000
0000000000000000
0001000000000000
,
0001000000000000
0000000000000000
0100000000000000
0000000000000000
,
1000000100000000
0000000000000000
0000000000000000
0000000000000000
,
0100001000000000
0000000000000000
0000000000000000
1000000100000000
;
