#TITLE:A-Yo!;
#SUBTITLE:;
#ARTIST:지누션;
#TITLETRANSLIT:;
#SUBTITLETRANSLIT:;
#ARTISTTRANSLIT:Jinusean;
#GENRE:;
#CREDIT:locuuraa;
#LYRICSPATH:;
#MUSIC:A-Yo!.ogg;
#OFFSET:0.940;
#SAMPLESTART:11.600;
#SAMPLELENGTH:12.000;
#SELECTABLE:YES;
#BPMS:0.000=93.000;
#STOPS:;
#KEYSOUNDS:;
#BANNER:A-Yo!.png;
#BACKGROUND:A-Yo!.png;
#CDTITLE:../CDTitles/4DDS.png;
#BGCHANGES:-14.700=A-Yo!.avi=1.000=0=0=1,
229.000=A-Yo!.png=1.000=0=0=1,
99999=-nosongbg-=1.000=0=0=0
;
#NOTES:
     ds3ddx-double:
     Club:
     Easy:
     4:
     :
0000000000000000
0000000000000000
0000000000000000
0000000000000000
,
\//
Measure
1
0000000000000000
0000000000000000
0000000000000000
0000000000000000
,
\//
Measure
2
0000000000000000
0000000000000000
0000000000000000
0000000000000000
,
\//
Measure
3
0000000000000000
0000000001000010
0000000000010101
0000000000000100
,
\//
Measure
4
0000000010110000
0000000000000000
0000000000100000
0000000000000000
0000000000000010
0000000001000000
0000000000000010
0000000000000000
,
\//
Measure
5
0000000001000000
0000000000000010
0000000001000000
0000000000000000
0000000000100000
0000000000100000
0000000000100000
0000000000000000
,
\//
Measure
6
0000010000000000
0000000000100000
0000010000000000
0000000000000000
0000001000000000
0000000000000000
0000001000000000
1000000000000000
,
\//
Measure
7
0000001000000000
0100000000000000
0000010000000000
0010000000000000
,
\//
Measure
8
0000010000000000
0000000000000000
0100000000000000
0100000000000000
0000001000000000
0000000000000000
0100000000000000
0000000000000000
,
\//
Measure
9
0000001000000000
0000000000000000
0100000000000000
0100000000000000
0000010000000000
0000001000000000
0000000001000000
0000000000100000
,
\//
Measure
10
0000000000000100
0000000000100000
0000000000000001
0000000000000001
0000000001000000
0000000010000000
0000000000000010
0000000001000000
,
\//
Measure
11
0000000000000100
0000000001000000
0000000000010000
0000000000000010
0000000001000000
0000000000000000
0000000001000000
0000000000000000
,
\//
Measure
12
0000000000000100
0000000000000010
0000000000100000
0000000000100000
0000000000000100
0000000000000001
0000000000000100
0000000000000000
,
\//
Measure
13
0000000001000000
0000000000000010
0000000000010000
0000000000010000
0000000000100000
0000000000000000
0000000001000000
0000001000000000
,
\//
Measure
14
0000010000000000
0000000000000000
0000001000000000
0000000001000000
0000001000000000
0000000000000000
0000000000000000
0000000000000000
,
\//
Measure
15
0000000000000000
0000000000000000
1100000000000000
0001010000000000
,
\//
Measure
16
0100000000000000
0000010000000000
0011000000000000
0000001100000000
,
\//
Measure
17
0010000000000000
0000001000000000
1100000000000000
0000001100000000
,
\//
Measure
18
0100000000000000
0000001000000000
0100000000000000
0100001000000000
0000010000000000
0000000000000000
0000010000000000
0000000000000000
,
\//
Measure
19
0000001000000000
0000000001000000
0000001001000000
0000000000000000
0000000000100000
0000000000000000
0000010000000000
0000000000000000
,
\//
Measure
20
0000000000010000
0001000000000000
0000000000000000
0000000000000000
0000010000000000
0000000000000000
0000000000100000
0000000000000000
,
\//
Measure
21
0000000001000000
0000000000010000
0000000001000000
0000000000000000
0000000000010101
0000000000000000
0000000000000100
0000000000000000
,
\//
Measure
22
0000000010110000
0000000000000000
0000000000100000
0000000000000000
0000000000000010
0000000001000000
0000000000000010
0000000000000000
,
\//
Measure
23
0000000001000000
0000000000000010
0000000001000000
0000000000000000
0000000000100000
0000000000100000
0000000000100000
0000000000000000
,
\//
Measure
24
0000010000000000
0000000000100000
0000010000000000
0000000000000000
0000001000000000
0000000000000000
0000001000000000
1000000000000000
,
\//
Measure
25
0000001000000000
0000000000000000
0000000000011000
0000000000000000
,
\//
Measure
26
0000000000000000
0000000000000000
0000000000000100
0000000000100000
,
\//
Measure
27
0000000000000100
0000000000100000
0000000000000100
0000000000000100
,
\//
Measure
28
0000000000100000
0000000000100000
0000000001000000
0000001000000000
,
\//
Measure
29
0000000001000000
0000000000000000
0000001000000000
0000000000000000
0000000001000000
0000010000000000
0000000001000000
0000001000000000
,
\//
Measure
30
0000010000000000
0100000000000000
0000010000000000
0000000100000000
0100000000000000
0000000000000000
0000001000000000
0000000000000000
,
\//
Measure
31
0100000000000000
0000000000000000
0000001000000000
0000000000000000
0010000000000000
0000001000000000
0100000000000000
0000010000000000
,
\//
Measure
32
0000001000000000
0000000001000000
0000001001000000
0000000000000000
0000000000100000
0000000000100000
0000000001000000
0000000000000001
,
\//
Measure
33
0000000001000000
0000000000000010
0000000001000010
0000000000000000
0000000000000100
0000000010000001
0000000000000100
0000000000000000
,
\//
Measure
34
0000000000100000
0000000010000001
0000000000100000
0000000000000000
0000000000000011
0000000000000000
0000000000000010
0000000000000000
,
\//
Measure
35
0000000000000011
0000000000000000
0000000000000010
0000000000000000
0000000000100000
0000000000100000
0000000001000000
0000000001000000
,
\//
Measure
36
0000001000000000
0000000001000000
0000001000000000
0000000000000000
0000010000000000
1000000000000000
0100000000000000
0000001000000000
,
\//
Measure
37
0100001000000000
0000000000000000
0000000000000000
0000000000000000
;
