#TITLE:A better day;
#SUBTITLE:;
#ARTIST:JTL;
#TITLETRANSLIT:;
#SUBTITLETRANSLIT:;
#ARTISTTRANSLIT:;
#GENRE:;
#CREDIT:locuuraa;
#LYRICSPATH:;
#MUSIC:A better day.ogg;
#OFFSET:0.040;
#SAMPLESTART:12.000;
#SAMPLELENGTH:12.000;
#SELECTABLE:YES;
#BPMS:0.000=162.000;
#STOPS:;
#KEYSOUNDS:;
#BANNER:A better day.png;
#BACKGROUND:A better day.png;
#CDTITLE:../CDTitles/4DSS.png;
#BGCHANGES:-14.700=A better day.avi=1.000=0=0=1,
229.000=A better day.png=1.000=0=0=1,
99999=-nosongbg-=1.000=0=0=0
;
#NOTES:
     ds3ddx-single:
     Hard:
     Medium:
     4:
     :
00000000
00000000
00000000
00000000
,
00100100
00000000
00000100
00000000
,
00000010
00000000
10100000
00000000
,
01000000
00000000
00000101
00000000
,
00000010
00000010
01000000
00000000
,
11000011
00000000
00000100
00000000
,
00000100
00000000
00100000
00000000
,
00000011
00000000
11000000
00000000
,
00000100
00000000
11000011
00000000
,
00000100
00100000
00000101
00000000
,
01000000
00000010
11000000
00000000
,
00000100
00000010
00010100
00000000
,
00100000
01000000
00110000
00000000
,
00000100
00000000
11000000
00000000
,
00100000
00000000
00000011
00000000
,
00000100
00100000
00000101
00000000
,
01000000
00000010
11000000
00000000
,
00000100
00000000
00100000
00000011
,
01000000
00000000
11000011
00000000
,
00100000
00000000
00000100
11000000
,
00000100
00100000
00000100
10000001
,
00100000
00000000
00000100
11000000
,
00000010
00000000
11000011
00000000
,
00000100
00000000
00100000
00000011
,
00100000
00000100
00100000
10000001
,
00000100
00000000
01000000
00000000
,
00000010
00100000
00010100
00000000
,
00100000
00000000
00000010
00000000
,
01000000
00000100
00110000
00000000
,
10000001
00000000
00000000
00000000
,
10100000
00000000
00000000
00000000
,
00000101
00000000
00000000
00000000
,
00000000
00000010
01000000
10000001
,
00100100
00000000
00000100
00000000
,
00000010
00000000
00100000
00000000
,
01000000
00100000
00000101
00000000
,
00000010
00010000
00100000
00000000
,
01000010
00000000
00000100
00000000
,
00000100
00010000
00100000
00000000
,
00000011
11000000
00000011
00000000
,
00000100
00000000
11000011
00000000
,
00000100
00100000
00000101
00000000
,
01000000
00000010
11000000
00000000
,
00000100
00000010
00010100
00000000
,
00100000
01000000
00110000
00000000
,
00000100
00000000
11000000
00000000
,
00100000
00000000
00000011
00000000
,
00000100
00100000
00000101
00000000
,
01000000
00000010
11000000
00000000
,
00000100
00000000
00100000
00000011
,
01000000
00000000
11000011
00000010
,
00100000
00000000
00000100
11000000
,
00000100
00100000
00000100
10000001
,
00100000
00000000
00000100
11000000
,
00000000
00000000
11000011
00000000
,
00000100
00000000
00100000
00000011
,
00100000
00000100
00100000
10000001
,
00000100
00000000
01000000
00000000
,
00000010
00100000
00010100
00000000
,
00100000
00000000
00000010
00000000
,
01000000
00000100
00110000
00000000
,
10000001
00000000
00010000
00000000
,
10100000
00000000
01000000
00000000
,
00000101
00000000
01000001
00000000
,
00000000
00100000
00000000
00000000
00000010
00000000
00000000
00000000
,
00000001
00000000
10000001
00000000
,
00000100
00000000
01000000
00000000
,
10000000
00000000
10000001
00000000
,
00100100
00000000
00000000
00000000
;
#NOTES:
     ds3ddx-single:
     Easy:
     Easy:
     4:
     :
00000000
00000000
00000000
00000000
,
00100100
00000000
00000100
00000000
,
00000010
00000000
10100000
00000000
,
01000000
00000000
00000101
00000000
,
00000010
00000000
01000000
00000000
,
11000011
00000000
00000100
00000000
,
00000100
00000000
00100000
00000000
,
00000011
00000000
11000000
00000000
,
00000100
00000000
11000011
00000000
,
00000100
00000000
00000101
00000000
,
01000000
00000000
11000000
00000000
,
00000100
00000000
00010100
00000000
,
00100000
00000000
00110000
00000000
,
00000100
00000000
11000000
00000000
,
00100000
00000000
00000011
00000000
,
00000100
00000000
00100000
00000000
,
01000000
00000000
00000010
00000000
,
00000100
00000000
00100000
00000000
,
01000000
00000000
11000011
00000000
,
00100000
00000000
00000100
00000000
,
00100000
00000000
00000100
00000000
,
00100000
00000000
00000100
00000000
,
00000000
00000000
11000000
00000000
,
00000100
00000000
00100000
00000000
,
00000100
00000000
00100000
00000000
,
00000100
00000000
01000000
00000000
,
00000010
00000000
00010100
00000000
,
00100000
00000000
00000010
00000000
,
01000000
00000000
00010000
00000000
,
10000001
00000000
00000000
00000000
,
10100000
00000000
00000000
00000000
,
00000101
00000000
00000000
00000000
,
00000000
00000010
00000000
00000000
,
00100000
00000000
00000100
00000000
,
00000010
00000000
00100000
00000000
,
01000000
00000000
00000101
00000000
,
00000010
00000000
00100000
00000000
,
01000010
00000000
00000100
00000000
,
00000100
00010000
00100000
00000000
,
00000011
00000000
01000000
00000000
,
00000100
00000000
11000011
00000000
,
00000100
00000000
00100000
00000000
,
01000000
00000000
01000000
00000000
,
00000100
00000000
00010100
00000000
,
00100000
00000000
00010000
00000000
,
00000100
00000000
11000000
00000000
,
00100000
00000000
00000011
00000000
,
00000100
00000000
00100000
00000000
,
01000000
00000010
01000000
00000000
,
00000100
00000000
00100000
00000000
,
01000000
00000000
00000000
00000010
,
00000000
00000000
00000100
00000000
,
00000100
00100000
00000100
00000000
,
00100000
00000000
00000100
00000000
,
00000000
00000000
01000010
00000000
,
00000100
00000000
00100000
00000000
,
00100000
00000000
00000100
00000000
,
00000100
00000000
01000000
00000000
,
00000010
00000000
00110000
00000000
,
00100000
00000000
00000010
00000000
,
01000000
00000000
00000010
00000000
,
10000001
00000000
00010000
00000000
,
10100000
00000000
01000000
00000000
,
00000100
00000000
01000000
00000000
,
00000000
00100000
00000000
00000000
00000010
00000000
00000000
00000000
,
00000001
00000000
10000001
00000000
,
00000100
00000000
01000000
00000000
,
10000000
00000000
10000001
00000000
,
00100100
00000000
00000000
00000000
;
#NOTES:
     ds3ddx-double:
     Club:
     Easy:
     4:
     :
0000000000000000
0000000000000000
0000000000000000
0000000000000000
,
0010010000000000
0000000000000000
0000010000000000
0000000000000000
,
0000000000100000
0000000000000000
0000000000100000
0000000000000000
,
0000000000000100
0000000000000000
0000000011000000
0000000000000000
,
0000000001000000
0000000000000000
0000000000100000
0000000000000000
,
0000001001000000
0000000000000000
0000010000000000
0000000000000000
,
0000010000000000
0000000000000000
0010000000000000
0000000000000000
,
0000001100000000
0000000000000000
1100000000000000
0000000000000000
,
0000010000000000
0000000000000000
1100001100000000
0000000000000000
,
0000010000000000
0000000000000000
0000010100000000
0000000000000000
,
0100000000000000
0000000000000000
0000010100000000
0000000000000000
,
0000000000100000
0000000000000000
0001010000000000
0000000000000000
,
0000010000000000
0000000000000000
0000000000110000
0000000000000000
,
0000000000100000
0000000000000000
0000000101000000
0000000000000000
,
0000010000000000
0000000000000000
0000001100000000
0000000000000000
,
0000010000000000
0000000000000000
0000010100000000
0000000000000000
,
0100000000000000
0000000000000000
1100000000000000
0000000000000000
,
0000010000000000
0000000000000000
0010000000000000
0000000000000000
,
0000010010000000
0000000000000000
0000001100000000
0000000000000000
,
0010000000000000
0000000000000000
0000010000000000
0000000000000000
,
0000010000000000
0000000000000000
0000010000000000
0000000000000000
,
0010000000000000
0000000000000000
0000010000000000
0000000000000000
,
0000001000000000
0000000000000000
0000001100000000
0000000000000000
,
0000000000100000
0000000000000000
0000000000100000
0000000000000000
,
0000000000100000
0000000000000100
0000000000000000
0000000010000001
,
0000000000100000
0000000000000000
0000000001000000
0000000000000000
,
0000001000000000
0000000000000000
0000010000000000
0000000000000000
,
0000001000000000
0000000000000000
0000000000100000
0000000000000000
,
0000001000000000
0000000000000000
0011000000000000
0000000000000000
,
1000000100000000
0000000000000000
0000000000000000
0000000000000000
,
0000010100000000
0000000000000000
0000000000000000
0000000000000000
,
0000001001000000
0000000000000000
0000000000000000
0000000000000000
,
0000000000000000
0000000000100000
0000000000000000
0000000010000001
,
0000000000100100
0000000000000000
0000000000000010
0000000000000000
,
0000000000100000
0000000000000000
0000000000000100
0000000000000000
,
0000000000100000
0000000000000000
1010000000000000
0000000000000000
,
0000001000000000
0001000000000000
0010000000000000
0000000000000000
,
0100001000000000
0000000000000000
0000010000000000
0000000000000000
,
0000010000000000
0001000000000000
0010000000000000
0000000000000000
,
0000001000000000
0000000001000000
0000001000000000
0000000000000000
,
0000010000000000
0000000000000000
0000001100000000
0000000000000000
,
0000010000000000
0000000000100000
0000010000000000
0000000000000000
,
0000001000000000
0100000000000000
0000001100000000
0000000000000000
,
0000010000000000
0000000000000000
0001010000000000
0000000000000000
,
0000000000100000
0000000000000000
0000000000110000
0000000000000000
,
0000000000100000
0000000000000000
0001010000000000
0000000000000000
,
0010000000000000
0000000000000000
0000001100000000
0000000000000000
,
0000010000000000
0000000000000000
0000010100000000
0000000000000000
,
0100000000000000
0000000000000000
1100000000000000
0000000000000000
,
0000010000000000
0000000000000000
0010000000000000
0000001100000000
,
0100000000000000
0000000000000000
1100001100000000
0000010000000000
,
0000000000100000
0000000000000000
0000000001000000
0000000011000000
,
0000000000100000
0000000000000100
0000000000000010
0000000010000001
,
0000000000100000
0000000000000000
0000010000000000
0000001100000000
,
0000000000000000
0000000000000000
1100001100000000
0000000000000000
,
0000010000000000
0000000000000000
0010000000000000
0000001100000000
,
0010000000000000
0000010000000000
0010000000000000
1000000100000000
,
0000010000000000
0000000000000000
0100000000000000
0000000000000000
,
0000001000000000
0010000000000000
0001010000000000
0000000000000000
,
0010000000000000
0000000000000000
0000001000000000
0000000000000000
,
0000000001000000
0000010000000000
0000000000100000
0000000000000000
,
0000000100000000
0000000000000000
0000010000000000
0000000000000000
,
1010000000000000
0000000000000000
0100000000000000
0000000000000000
,
0000010100000000
0000000000000000
0100000100000000
0000000000000000
,
0000000000000000
0010000000000000
0000000000000000
0000000000000000
0000001000000000
0000000000000000
0000000000000000
0000000000000000
,
0000010000000000
0000000000000000
0000000100000000
0000000000000000
,
0000010000000000
0000000000000000
0000000001000000
0000000000000000
,
0000000010000000
0000000000000000
0000010000000000
0000000000000000
,
0000010100000000
0000000000000000
0000000000000000
0000000000000000
;
