#TITLE:7年的爱;
#SUBTITLE:~ 7 Years;
#ARTIST:金贤政;
#TITLETRANSLIT:7 Nián de ài;
#SUBTITLETRANSLIT:;
#ARTISTTRANSLIT:Kim Hyun-jung;
#GENRE:;
#CREDIT:locuuraa;
#LYRICSPATH:;
#MUSIC:7年的爱.ogg;
#OFFSET:0.080;
#SAMPLESTART:12.000;
#SAMPLELENGTH:12.000;
#SELECTABLE:YES;
#BPMS:0.000=142.050;
#STOPS:;
#KEYSOUNDS:;
#BANNER:7年的爱.png;
#BACKGROUND:7年的爱.png;
#CDTITLE:../CDTitles/4DSS.png;
#BGCHANGES:-14.700=7年的爱.avi=1.000=0=0=1,
229.000=7年的爱.png=1.000=0=0=1,
99999=-nosongbg-=1.000=0=0=0
;
#NOTES:
     ds3ddx-single:
     Hard:
     Medium:
     5:
     :
00000000
00000000
00000000
00010000
,
00000000
00000000
00000000
10000000
,
00000000
00000000
00000000
00000001
,
00000000
00000000
00000000
00010000
,
00000000
00000000
00000000
00010000
,
00000000
00000000
00000000
00000001
,
00000000
00000000
00000000
10000000
,
00000000
00000000
00000000
10000001
,
00000000
00000000
00000000
00000000
,
00000000
00000000
00000000
10100000
,
00010100
00000011
00010100
11000000
,
00010100
10100000
00000101
01010000
,
00000011
11000000
10100000
00100001
,
10000100
00100001
00000100
00000101
,
00100000
11000000
00000010
00000101
,
00100000
11000000
00100100
00100000
,
01000000
00000010
00000100
00100000
,
00000100
00100000
00000000
00000100
,
00000110
00100000
01100000
00100000
,
00100100
00000010
01000010
00100000
,
10000010
00000100
00110000
01000000
,
10000010
01000000
00000101
00100000
,
01000001
01000000
00110000
00000100
,
00110000
01000000
00110000
00000100
,
00010010
00100000
00010010
11000010
,
00010000
00100000
00000100
00100000
,
00100001
00000010
01000000
00100000
,
00010100
00100000
00100000
00000010
,
10000100
00000100
00000100
01000000
,
10100000
00100000
00000100
00100000
,
00010010
01000000
00000010
00000100
,
00110000
00100000
01000000
00000010
,
10000100
00100000
01000000
00100100
,
01100000
01000010
00000110
10100000
,
10100000
00000101
00000101
11000000
,
11000000
00000011
00000011
00100000
,
00100001
00000100
10000100
00100000
,
01000000
00000010
00000100
00100000
,
01000000
00100000
00000100
00000010
,
00000100
00000100
00100000
01000000
,
01000000
00100000
00000100
00100000
,
01000010
00010000
01000000
00010100
,
00000100
00100001
01000000
00110000
,
00000100
10100000
00000100
00000011
,
01000000
01000001
00000010
10100000
,
00000100
01010000
00000010
00000100
,
00100000
00100100
00000100
00000010
,
01000000
01000010
01000000
00000100
,
00000100
00100000
01000000
00000011
,
00000000
00000000
00000000
10100000
,
00010100
00000011
00010100
11000000
,
00010100
10100000
00000101
01010000
,
00000011
11000000
10100000
00100001
,
10000100
00100001
00000100
00000101
,
00100000
11000000
00000010
00000101
,
00100000
11000000
00100100
00100000
,
01000000
00000010
00000100
00100000
,
00000100
00100001
00000000
00000000
;
