#TITLE:1MoreTime;
#SUBTITLE:;
#ARTIST:i-13;
#TITLETRANSLIT:;
#SUBTITLETRANSLIT:;
#ARTISTTRANSLIT:;
#GENRE:;
#CREDIT:locuuraa;
#LYRICSPATH:;
#MUSIC:1MoreTime.ogg;
#OFFSET:1.740;
#SAMPLESTART:10.880;
#SAMPLELENGTH:12.000;
#SELECTABLE:YES;
#BPMS:0.000=129.990;
#STOPS:;
#KEYSOUNDS:;
#BANNER:1MoreTime.png;
#BACKGROUND:1MoreTime.png;
#CDTITLE:../CDTitles/4DSS.png;
#BGCHANGES:-14.700=1MoreTime.avi=1.000=0=0=1,
229.000=1MoreTime.png=1.000=0=0=1,
99999=-nosongbg-=1.000=0=0=0
;
#NOTES:
     ds3ddx-single:
     Hard:
     Medium:
     4:
     :
00000000
00000000
00000000
00000000
,
00000000
00000000
00000000
00000000
,
00000000
00000000
00000000
00000000
,
00000000
00000000
00000000
00000000
,
00000000
00000000
00000000
00000000
,
00000000
00000000
00000000
00000000
,
00000000
00000000
00000000
00000000
,
00000000
00000000
00000000
00000000
,
00000000
00000000
00000000
00000000
,
00100000
00000100
10000001
00000000
,
00100010
01000000
00100001
00000101
,
10100001
10000101
00010000
00010000
,
00000000
00000001
00000001
00010000
,
00000100
00000000
00000000
00000000
,
00000000
00000000
00000000
00010000
,
00000001
00010000
00100001
10000000
,
10000000
10000000
00010000
01000000
,
00010100
10000001
00110000
10000001
,
00100000
00000100
00100000
00000000
00100000
00000000
00000000
00000000
,
10000101
00110000
00100100
00100100
,
00000100
00100000
00000100
00000100
,
00000100
00100000
00000010
01000000
,
10000001
00000000
00100000
00000001
,
10000000
00000000
00000000
00000000
,
00000000
00000000
00000000
00000000
,
00100000
00000100
00000010
01000100
,
00100000
00000100
01000000
00000010
,
00000100
00000000
01000000
00000000
00000010
00000010
01000000
00000000
,
00010000
00010000
01000010
00000000
,
00010000
10000000
00000000
00000000
,
00010100
10000001
10100001
00100000
,
00000100
00100000
00000100
00000100
,
00100000
00100000
00000100
00000100
,
00100000
00000100
00100000
00100000
,
00000100
00000100
00100000
00100000
,
00000010
01000000
00000010
01000000
,
00000000
00100100
00000000
00000000
,
00000100
00000000
00000000
01000000
,
10000101
00110000
00000000
00000000
,
01000000
00000010
01000000
00000010
,
00110000
00000000
00000000
00000000
,
00000001
00010000
00100001
00010000
,
00000101
00000010
00100000
11000000
,
00000100
00100000
00000100
00100000
,
00010000
00000000
00000000
00000001
,
00010000
00000001
00010000
00000001
,
00010000
00000000
00000000
00000000
,
00100100
00000001
00000000
00000000
00000100
00000000
00000010
00000000
,
00001000
00000000
00010000
00001000
,
00010000
00000001
00000000
00000000
00000000
00000000
00000000
00000000
,
00000000
00000000
00010000
00100000
,
00000001
00010000
00100001
10000000
,
10000000
10000000
00010000
01000000
,
00010100
10000001
00110000
10000001
,
00100000
00000100
00100000
00000000
00100000
00000000
00000000
00000000
,
10000101
00110000
00100100
00100100
,
00000100
00100000
00000100
00000100
,
10000101
00110000
00000011
11000000
,
00000100
00000000
00100000
00000100
,
00110000
00000000
00000000
00000000
;
