#TITLE:10 Minutes;
#SUBTITLE:;
#ARTIST:이효리;
#TITLETRANSLIT:;
#SUBTITLETRANSLIT:;
#ARTISTTRANSLIT:Lee Hyo-Ri;
#GENRE:;
#CREDIT:locuuraa;
#LYRICSPATH:;
#MUSIC:10 Minutes.ogg;
#OFFSET:0.780;
#SAMPLESTART:12.020;
#SAMPLELENGTH:12.000;
#SELECTABLE:YES;
#BPMS:0.000=96.300;
#STOPS:;
#KEYSOUNDS:;
#BANNER:10 Minutes.png;
#BACKGROUND:10 Minutes.png;
#CDTITLE:../CDTitles/4DSS.png;
#BGCHANGES:-14.700=10 Minutes.avi=1.000=0=0=1,
229.000=10 Minutes.png=1.000=0=0=1,
99999=-nosongbg-=1.000=0=0=0
;
#NOTES:
     ds3ddx-double:
     Club:
     Easy:
     3:
     :
0000000000000000
0000000000000000
0000000000000000
0000000000000000
,
0000000000000000
0000000000000000
0000000000000000
0000000000000000
,
0000000000000000
0000000000000000
0010000000000000
0010000000000000
,
0000010000000000
0000010000000000
0010000000000000
0000000000000000
,
0000000000000000
0000000000000000
0000001000000000
0000010000000000
,
0010000000000000
0000001000000000
0000010000000000
0000001000000000
,
0000000000100000
0000000000100000
0000000001000000
0000000000000000
0000000000000100
0000000000000000
0000000000100000
0000000000000000
,
0000000001000000
0000000000100000
0000000000000100
0000000000100010
,
0000000000000100
0000000000000100
0000000000000010
0000000000000000
0000000000100000
0000000000000000
0000000010100000
0000000000000000
,
0000010000000000
0000010001000000
0000001000000000
0000000000100000
,
0000001000000000
0000001000000000
0000000001000000
0000000000000000
0000010000000000
0000000000000000
0001000000000000
0000000000000000
,
0000000100000000
0010000000000000
0100000000000000
0000001000000000
,
1100001100000000
0000000000000000
0000000100000000
1000000000000000
,
0011000000000000
1000000000000000
0100000000000000
0000001000000000
,
0000010000000000
0000010000000000
0010000000000000
0000000000000000
0000010000000000
0000000000000000
0100000000000000
0000000000000000
,
0000001000000000
0010000000000000
0010000000000000
0000010000000000
,
0000001000000000
0000001000000000
0000000001000000
0000000000000000
0000010000000000
0000000000000000
0000000000100000
0000000000000000
,
0000001000000000
0000000000100000
0000000001000000
0000000000000010
,
0000000000000100
0000000000010000
0000000000000100
0000000010000000
,
0000000000100000
0000000001000000
0000010000000000
0000001000000000
,
0000000000100000
0000000000100000
0000001000000000
0000000000000000
0000000000100000
0000000000000000
0000001001000000
0000000000000000
,
0000010000000000
0000001000000000
0010000000000000
0000001000000000
,
0000010000000000
0010000000000000
0000001000000000
0000000000000000
0100000000000000
0000000000000000
0010000000000000
0000000000000000
,
0010000000000000
0000001000000000
0000010000000000
0010000000000000
,
0000001000000000
0000001000000000
0100000000000000
0001000000000000
0000010000000000
0000000000000000
0100000000000000
0000000000000000
,
0010000000000000
0000001000000000
0000010000000000
0000001000000000
,
0000000000100000
0000000001000000
0000010000000000
0000000000000000
0000000000100000
0000000000000000
0000000001000000
0000000000000000
,
0000000000100000
0000000000000011
0000000000100000
0000000000010100
,
0000000010000001
0000000000100000
0000000001000000
0000010000000000
,
0000000001000000
0000010000000000
0000000000100000
0000010000000000
,
0000000001000000
0000000001000000
0000001000000000
0000000000000000
0001000000000000
0000000000000000
0000001000000000
0000000000000000
,
0011000000000000
0000000000000000
0000010000000000
0000000000000000
0000001000000000
0000001000000000
1100000000000000
0000000000000000
,
0001010000000000
1000000000000000
0010000000000000
0000010000000000
,
0000001000000000
0100000000000000
0010000000000000
0100000000000000
,
0000001000000000
0000001000000000
0001000000000000
0000000000000000
0010000000000000
0000000000000000
0000000100000000
0000000000000000
,
0000000000100000
0000000000000100
0000000000000100
0000000000100100
,
0000000001000010
0000000011000000
0000000000000011
0000000000000000
;
#NOTES:
     ds3ddx-single:
     Hard:
     Medium:
     3:
     :
00000000
00000000
00000000
00000000
,
00000000
00000000
00000000
00000000
,
00000000
00000000
00100000
00100000
,
00100000
00100000
00100000
00000000
,
00000000
00000000
00000010
00000100
,
00100000
00000010
01000000
00010000
,
00000010
00000010
01000000
00000000
00000100
00000000
00100000
00000000
,
00000010
00100000
01000000
00100000
,
00000100
00000100
00000010
00000000
00100000
00000000
10100000
00000000
,
00000100
00000101
01000000
00000100
,
01000000
01000000
00100000
00000000
00000100
00000000
10100000
00000000
,
00000101
00100000
01000000
00000100
,
01000000
01000000
00000010
00010000
00100100
00000000
00000000
00000000
,
00000000
10000000
01000000
00000010
,
00000100
00000100
00100000
00000000
00000100
00000000
01000000
00000000
,
00000010
00100000
00100000
00000100
,
01000000
01000000
00000010
00000000
00000100
00000000
00100000
00000000
,
00000010
00100000
00000100
01000000
,
00000100
01000000
00010000
00000000
00000100
00000000
00000010
00000000
,
00100000
01000000
00100000
01000000
,
00100000
00100000
00000010
00000000
00100100
00000000
00000100
00000000
,
01000000
00100000
00000100
00000010
,
00000100
00100000
00000010
00000000
01000000
00000000
00100000
00000000
,
00100000
00000010
00000100
00100000
,
00000010
00000010
01000000
00010000
00000100
00000000
01000000
00000000
,
00100000
00000010
00100000
00000100
,
00100000
01000000
00000010
00000000
00100000
00000000
01000000
00000000
,
00100000
00000010
00100000
00010100
,
00010100
00100000
00000100
00100000
,
01000000
00000100
00100000
00000100
,
00000010
00000010
00100000
00000000
00010100
00000000
01000000
00000000
,
00110000
00000000
00000100
00000000
00000010
00000010
11000000
00000000
,
00010100
10000000
00100000
00000100
,
00000010
01000000
00100000
01000000
,
00000010
00000010
00010000
00000000
00100000
00000000
00000001
00000000
,
00000100
00100000
00000100
00100100
,
01000010
11000000
00000011
00000000
;
#NOTES:
     ds3ddx-single:
     Easy:
     Easy:
     3:
     :
00000000
00000000
00000000
00000000
,
00000000
00000000
00000000
00000000
,
00000000
00000000
00100000
00100000
,
00100000
00100000
00100000
00000000
,
00000000
00000000
00000010
00000000
,
00100000
00000010
01000000
00010000
,
00000010
01000000
00000100
00100000
,
00000010
00100000
01000000
00100000
,
00000100
01000000
00000010
10100000
,
00000100
00000101
01000000
00000100
,
01000000
00000100
00100000
00000000
,
00000101
00100000
01000000
00000100
,
01000000
00000010
00010000
00000010
,
01000000
10000000
01000000
00000010
,
00000100
00100000
00000100
01000000
,
00000010
00100000
00100000
00000100
,
01000000
10000001
00000100
00100000
,
00000011
00100000
00000100
01000000
,
00000100
00100000
00000100
00000010
,
00100000
01000000
00100000
01000000
,
00100000
00000010
00010000
00000100
,
01000000
00100000
00000100
00000010
,
00000100
01000010
00000000
00100000
,
00100000
00000010
00000100
00100000
,
00000010
01000000
00010100
01000000
,
00100000
00000010
00100000
00000100
,
00100000
00000011
00100000
01000000
,
00100000
00100010
00100000
00100100
,
00010100
00100000
00000100
00100000
,
01000000
00000100
00100000
00000100
,
00000010
00000000
00010100
01000000
,
00110000
00000100
00000010
01000000
,
00010000
10000000
00100000
00000100
,
00000010
01000000
00100000
01000000
,
00000010
00010000
00100000
00000001
,
00000100
00100000
00000100
00100100
,
01000010
11000000
00000011
00000000
;
