#TITLE:[REMIX] ZiGZaG + VertexEX + Energizer;
#SUBTITLE:;
#ARTIST:VVV & Zig Zag;
#TITLETRANSLIT:;
#SUBTITLETRANSLIT:;
#ARTISTTRANSLIT:;
#GENRE:;
#CREDIT:locuuraa;
#LYRICSPATH:;
#MUSIC:[REMIX] ZiGZaG + VertexEX + Energizer.ogg;
#OFFSET:3.080;
#SAMPLESTART:11.080;
#SAMPLELENGTH:12.000;
#SELECTABLE:YES;
#BPMS:0.000=195.000,127.500=400.000,131.000=110.000,141.000=80.000,149.000=120.000,159.000=160.000,179.000=195.000,375.000=210.000,519.000=110.000,542.000=210.000,543.000=210.000;
#STOPS:;
#KEYSOUNDS:;
#BANNER:[REMIX] ZiGZaG + VertexEX + Energizer.png;
#BACKGROUND:[REMIX] ZiGZaG + VertexEX + Energizer.png;
#CDTITLE:../CDTitles/4DSS.png;
#BGCHANGES:-14.700=[REMIX] ZiGZaG + VertexEX + Energizer.avi=1.000=0=0=1,
229.000=[REMIX] ZiGZaG + VertexEX + Energizer.png=1.000=0=0=1,
99999=-nosongbg-=1.000=0=0=0
;
#NOTES:
     ds3ddx-single:
     Remix:
     Challenge:
     8:
     :
00000000
00000000
00000000
00000000
,
00000000
00000000
00000000
00000000
,
00000000
00000000
00000000
01000000
,
00000010
00000000
01000000
00000010
00000000
00100000
00000010
00000000
,
01000000
00000000
00000100
10100000
00000000
00000100
01000000
00000000
,
00000100
00000000
00100000
00000000
00100000
00000010
00000000
01000000
,
00000000
00000000
00000000
00000100
00000000
00000000
00000000
00000000
00000000
01000000
00000000
00000000
00000000
00000000
00000010
00000000
00000000
00000000
00100000
00000000
00000000
00000000
00000000
00000000
,
00000100
00000000
01000000
00000000
00000000
00000000
00000010
00000000
00000000
00100000
00000000
00000000
00000100
00000000
00000000
01000000
,
00000000
00000000
00000000
00000000
00000000
00000000
00000010
00000000
00000000
00000000
00000000
00000000
00000000
00000000
00000000
00000000
00000000
00000000
01000000
00000000
00000000
00000000
00000000
00000000
00000000
00000000
00000000
01000000
00000000
00000000
00000000
00000000
00000000
00000000
00000000
00000000
00000000
00000000
00000000
00000000
00000011
00000000
00000000
00000000
00000000
00000000
00000000
00000000
,
00000000
00100000
01000000
00100000
01000000
00100000
01000000
00000100
,
00000010
00000000
00000100
00000000
00000010
00000000
00000100
00000000
00000010
00000000
00000000
01000000
00000000
00000000
00000010
00000000
,
01000000
00000000
00000000
00000010
00000000
00000000
00000000
00100000
00000100
00000000
00000000
00100000
00000000
00000000
00000000
00100000
,
00000000
00000000
00000000
00100000
00000000
00000100
00000000
00000000
01000000
00000000
00000000
00000010
00000000
00000000
00000000
00100000
,
00000000
00000000
00000010
00000000
00000000
00000000
01000000
00000000
00000000
00000010
00000000
00000000
00100000
00000000
00000000
00000010
,
00000000
00000000
00100000
00000000
00000000
00000100
00000000
00000000
00000000
00100000
00000000
00100000
00000000
00100000
00000000
00100000
,
00000000
00100000
00000000
00000010
00000000
00000000
01000000
00000000
00000010
00000000
00000000
00100000
00000000
00000000
00000010
00000000
,
00000000
00100000
00000000
00000000
00000010
00000000
00000000
01000000
00000000
00000000
00000010
00000000
00000000
00100000
00000000
00000000
,
00000100
00000000
00000000
00100000
00000000
00000000
00000010
00000000
00000000
00000000
01000000
00000000
00000000
00000010
00000000
01000000
,
00000000
00000100
00000000
00000000
01000000
00000000
00000000
00000000
00000100
00000000
00000000
00000010
00000000
00000000
00000100
00000000
,
00000000
00000010
00000000
00000000
01000000
00000000
00000000
00000010
00000000
00000000
01000000
00000000
00000000
00000010
00000000
00000000
,
00100000
00000000
00000000
00000100
00000000
00000000
00100000
00000000
00000000
00000010
00000000
00000000
00000000
00100000
00000000
00000000
,
00000010
00000000
01000000
00000000
00000010
00000000
01000000
00000000
00000010
00000000
01000000
00000000
00000000
00000000
00000000
00000000
00000000
00000000
00000100
00000000
00100000
00000000
00000100
00000000
00100000
00000000
00000100
00000000
00100000
00000000
00000010
00000000
00000000
00000000
00000000
00000000
00000000
00000000
00000000
01000000
00000000
00000000
00000000
00000000
00000000
00000000
00000000
00000000
,
00000010
00000000
00000000
00100000
00000000
00000000
00000010
00000000
00000000
01000000
00000000
00000000
00000100
00000000
00000000
00100000
,
00000000
00000000
00000010
00000000
00000000
01000000
00000000
00000000
00000010
00000000
00000000
01000000
00000000
00000000
00000000
00000100
,
00000000
00000000
00000000
00000000
00000000
00000000
01000000
00000000
00000000
00000000
00000000
00000000
00000000
00000000
01000000
00000000
00000000
00000000
00000000
00000000
00000000
00000100
00000000
00000000
00000000
00000000
00000000
00000000
00000000
00000000
00000010
00000000
00000000
00000000
00000000
00000000
01000000
00000000
00000000
00000000
00000000
00000000
00000100
00000000
00000000
00000000
00000000
00000000
,
01000000
00000100
01000000
00000010
01000000
00000100
01000000
00000010
,
01000000
00000100
00100000
00000010
01000000
00000010
00100000
01000000
,
00100000
01000000
00000100
00000010
01000000
00000010
00100000
00000100
,
01000000
00000010
00000100
00100000
00000010
01000000
00000100
01000000
,
00000010
01000000
00000100
00100000
00000100
00100000
00000010
00100000
,
00000100
01000000
00000010
00000000
00100000
00000000
00100000
00000000
,
00000100
01000000
00000010
01000000
00000100
00100000
00000100
01000000
,
00000000
00000000
00000000
00000000
00000000
00000000
00000000
11000000
,
00000000
00000000
00000000
00000000
00000000
00000000
11000000
00000000
00000000
00010000
00000010
00000000
01000000
00000000
00000011
00000000
,
00000000
00000000
00000000
00100000
00000000
00000000
00000100
00000000
00000000
10100000
00000000
00000000
00000100
00000000
00100000
00000000
00000100
00000000
00000000
00100000
00000000
00000000
00000100
00000000
,
00000000
01000000
00000000
00000000
00000010
00000000
00000000
00000000
01000000
00000000
00000000
00000000
00000000
00000000
00000000
00000000
00000000
00000000
00010100
00000000
00000000
00000000
00000000
00000000
01000000
00000000
00000000
00000000
00000000
00000000
01000000
00000000
,
00000000
00000001
00000000
00000000
00110000
00000000
00000100
00000000
00000100
00100000
00000000
00000010
01000000
00000100
00000000
00100000
,
00000100
01000000
00000000
01000000
00000100
00000000
00000000
00000000
00000000
00000000
00000000
00000000
00000000
00000000
00000000
00000000
,
00000000
00000000
00000000
00000000
,
00000000
00000000
00000000
00000000
00000000
00000000
00000000
00000000
01000000
00000010
00000000
00100000
,
00000000
00000000
00000000
00000000
00000010
00000000
00000000
00000000
00000000
00000000
00000000
00000000
01000000
00000000
00000000
00000000
00000000
00000000
00000000
00000000
00000000
00000100
00000000
00000000
00000000
00000000
00000000
00000000
00000000
00000000
01000000
00000000
00000000
00000000
00000000
00000000
00000010
00000000
00000000
00000000
00000000
00000000
00000000
00000000
00100000
00000000
00000000
00000000
,
00000000
00000000
00000000
00000100
00000000
00000000
00000000
00000000
00000000
00000000
00000000
00000000
00100000
00000000
00000000
00000000
00000000
00000000
00000000
00000000
01000000
00000000
00000000
00000000
00000000
00000000
00000000
00000100
00000000
00000000
01000000
00000000
00000000
00000000
00000000
00000000
00000000
00000000
00000000
00000100
00000000
00000000
00000000
00000000
00000000
00000000
00000000
00000000
,
00000000
01000000
00000000
00000000
00000000
00000000
00000000
00000000
00000000
00000010
00000000
00000000
00000000
00000000
00000000
00000000
00000000
00000000
01000000
00000000
00000000
00000000
00000000
00000000
00000100
00000000
00000000
00000000
00000000
00000000
00000000
00000000
00000000
00100000
00000000
00000000
00000000
00000000
00000000
00000000
00000010
00000000
00000000
00000000
00000000
00000000
00000000
00000000
,
01000000
00000000
00000000
00000000
00000000
00000000
00000000
00000000
00000100
00000000
00000000
00000000
00000000
00000000
00100000
00000000
00000000
00000000
00000000
00000000
00000000
00000000
00000010
00000000
00000000
00000000
00000000
01000000
00000000
00000000
00000000
00000000
00000000
00000000
00000000
00000000
00000010
00000000
00000000
00000000
00000000
00000000
00000000
00000000
00000000
01000000
00000000
00000000
,
00000000
00000000
00000000
00000101
00000000
00000000
00000000
00000000
10100000
00000000
00000000
00000000
00000100
00000000
00000010
00000000
,
01000000
00000010
00100000
00000100
00100000
01000000
00000100
00100000
,
00000010
01000000
00000100
00100000
00000010
01000000
00100000
00000100
,
00000010
00100000
00000010
01000000
00000100
00100000
00000010
01000000
,
00100000
00000100
00100000
00000010
01000000
00000100
00100000
00000010
,
00100000
00000100
01000000
00100000
00000100
00100000
00000010
00000100
,
00100000
00000010
01000000
00100000
00000100
01000000
00000010
00000100
,
00100000
00000010
00000100
01000000
00100000
00000010
00000100
01000000
,
00000010
01000000
00100000
00000010
01000000
00000100
00100000
00000010
,
00100000
00000100
01000000
00000010
00100000
00000100
01000000
00000100
,
01000000
00000010
00100000
00000100
00000010
00100000
00000100
01000000
,
00100000
00000100
01000000
00000010
00000100
00100000
00000010
01000000
,
00000100
00100000
00000100
00100000
00000010
01000000
00000100
00100000
,
00000010
00000000
00000000
01000000
00000000
00000000
00000010
00000000
00000000
00000000
00000000
00000000
00000100
00000000
00000000
00000000
01000000
00000000
00000000
00000000
00000000
01000000
00000000
00000000
,
00000000
00000011
00000000
00000000
01000000
00000000
00000000
00010100
,
01000000
00000000
00000000
00000000
00000000
00000000
00000000
00000000
00000000
00000000
00000000
00000000
00000010
00000000
00000000
00000000
00000000
00000000
00000000
00000000
01000000
00000000
00000000
00000000
00000000
00000000
00000000
01000000
00000000
00000000
00000000
00000000
00000000
00000000
00000000
00000000
00000101
00000000
00000000
00000000
00000000
00000000
00000000
00000000
00000000
00000000
00000000
00000000
,
00010000
00000000
00000000
01000000
00000000
00000000
00000000
00000000
00000100
00000000
00000100
00000000
,
00000000
00000000
00000000
00000000
00100000
00000000
00000000
00000000
00000000
00000000
00000000
00000000
00000000
00000000
00000000
00000000
00000010
00000000
00000000
00000000
00000000
00000000
00000000
00000000
01000000
00000000
00000000
00000000
00000000
00000000
01000000
00000000
00000000
00000000
00000000
00000000
00000000
00000000
00000000
00000000
00000000
00000000
00000000
00000000
00000000
00000100
00000000
00000000
,
00000000
10000000
00000000
00000000
00000000
00000000
00100000
00000000
00000000
00000000
00000011
00000000
00000000
00000000
01000000
00000000
,
00010000
00000000
00000000
00000100
00000000
00000000
00000000
00000000
00000000
00000000
00000000
01000000
00000000
00000000
00000100
00000000
,
00000000
01000000
00000000
00000000
00000000
00000100
00000000
00000000
11000000
00000000
00000000
00000000
00000100
00000000
00000000
00000000
,
00000100
00000000
01000000
00000000
01000000
00000010
00000000
00000000
01000000
00000000
01000000
00000000
00000100
00000000
00000000
00100000
,
00000000
00100000
00000000
00000100
00000000
00000000
00000000
01000000
00000000
00000000
00000000
00000000
00000000
00000010
00000000
01000000
,
00000000
00000100
00000000
00100000
00000000
00000010
00000000
00000100
00000000
00100000
00000000
00000010
00000000
01000000
00000000
00000010
,
00000000
00100000
00000000
01000000
00000000
00000100
01000000
00000000
00000100
00000000
00100000
00000000
00000010
00000000
01000000
00000000
,
00000100
00100000
00000010
01000000
00000010
00100000
00000010
01000000
,
00000010
00100000
00000100
00100000
00000100
01000000
00000010
01000000
,
00000100
00000000
00100000
00000000
00000010
00000000
00000000
00000000
00000000
11000000
00000000
00000000
00000000
00000000
00000000
00000000
,
00010100
00000000
00000000
00000100
00000000
01000000
00000000
00100000
00000000
00000010
00000000
01000000
00000000
00000100
00000000
00100000
,
00000000
00000010
00000000
01000000
00000000
00000100
00000000
00100000
00000000
00000010
00000000
00100000
00000000
00000010
00000000
00100000
,
00000000
00000100
00000000
01000000
00000000
00000010
00000000
00100000
00000000
00000100
00000000
01000000
00000000
00000100
00000000
00100000
,
00000000
00000100
00000000
01000000
00000000
00000010
00000000
00000100
00000000
01000000
00000000
00000100
00000000
00100000
00000000
00000010
,
00000000
01000000
00000000
00000100
00000000
00100000
00000000
00000010
00000000
01000000
00000000
00000100
00000000
01000000
00000000
00000010
,
00000000
01000000
00000000
00100000
00000000
00000100
00000000
00100000
00000000
00000100
00000000
00100000
00000000
00000010
00000000
01000000
,
00000000
00000100
00000000
00100000
00000000
00000010
00000000
00100000
00000000
00000100
00000000
01000000
00000000
00100000
00000000
00000010
,
00000000
01000000
00000000
00000100
00000000
00100000
00000000
01000000
00000000
00000010
00000000
01000000
00000000
00000010
00000000
00100000
,
00000000
00000010
00000000
01000000
00000000
00000100
00000000
01000000
00000000
00000100
00000000
00100000
00000000
00000010
00000000
00000100
,
00000000
01000000
00000000
00000010
00000000
00100000
00000000
00000100
00000000
01000000
00000000
00000010
00000000
00100000
00000000
00000100
,
00000000
01000000
00000000
00000010
00000000
00100000
00000000
00000010
00000000
00100000
00000000
00000010
00000000
00100000
00000000
00000100
,
00000000
01000000
00000000
00000100
00000000
00100000
00000000
00000100
00000000
01000000
00000000
00000100
00000000
00100000
00000000
00000010
,
00000000
00000000
01000000
00000000
00000000
00000011
00000000
00000000
00000100
00000000
00100000
00000000
00000000
00000010
00000000
11000000
,
00000000
00000000
00000000
00000000
00000000
00000000
00000100
00000000
00000000
00000000
00000000
00000000
00000000
00000000
00000000
01000000
00000000
00000000
00000000
00000000
00000100
00000000
00000000
00000000
00000100
00000000
00000000
00000000
00000100
00000000
00000000
00000000
00000100
00000000
00000000
00000000
00000100
00000000
00000000
00000000
00000000
00000000
00000000
00000000
01000000
00000000
00000000
00000000
,
00000100
00000000
00000000
00100000
00000000
00000000
00000010
00000000
00000000
01000000
00000000
00000000
00000010
00000000
00000000
00000000
00000000
00100000
00000000
00000000
00000000
00000100
00000000
00000000
,
00000000
01000000
00000000
00000000
00000000
00000011
00000000
00000000
00000000
00100000
00000000
00000000
00000101
00000000
00000000
00000000
01000000
00000000
00000000
00000000
00000100
00000000
00000000
00000000
,
00000100
00000000
00000000
00000000
00000000
00000000
00000000
00000000
01000000
00000000
00000000
00000000
00000000
00000000
00000000
00000000
00000000
00000000
00000000
00000000
00000000
00000000
00000000
00000000
00100000
00000000
00000000
00000000
00000000
00000000
00000000
00000000
00000000
00000010
00000000
00000000
00000000
00000000
00000000
00100000
00000000
00000000
00000000
00000000
00000000
00000100
00000000
00000000
,
00000000
00000000
01000000
00000000
00000010
00000000
00100000
00000000
00000100
00000000
00000000
01000000
00000000
00000010
00000000
00000000
,
01000000
00000000
00000000
00000000
00000000
00000000
00000000
00000000
00000000
00000100
00000000
00000000
00000000
00000000
00000000
00000000
00000000
00000000
00100000
00000000
00000100
00000000
00100000
00000000
00000100
00000000
00100000
00000000
00000100
00000000
00100000
00000000
00000100
00000000
00100000
00000000
00000100
00000000
00000000
00000000
00000000
00000000
00000000
00000000
00000000
00000000
00000000
00000000
,
00000000
00000000
01000000
00000000
00000000
00000000
00000000
00000000
00000010
00000000
00000000
00000000
00000000
00000000
00000000
00000000
00100000
00000000
00000000
00000000
00000000
00000000
00000010
00000000
00000000
00000000
00000000
00000000
00000000
00000000
00100000
00000000
00000000
00000000
00000000
00000000
00000100
00000000
00000000
00000000
00000000
00000000
00000000
00000000
00000000
01000000
00000000
00000000
,
00000000
00000100
00000000
00000000
01000000
00000000
00000000
00000100
00000000
00000000
01000000
00000000
00000000
01000000
00000000
00000000
,
01000000
00000000
00000010
00000000
11000000
00000000
00000000
00000000
00000000
00000000
00010100
00000000
00000000
00000000
00000000
01010000
,
00000000
00000000
00000000
00000000
00000100
00000000
00000000
00000000
00000000
00000000
00000000
00000101
00000000
00000000
00000000
00000000
,
00000000
00100000
00000000
00000000
00000000
00000000
00110100
00000000
00000000
00000000
00000000
00000000
00000100
00000000
00000000
00000000
,
00000000
11000011
00000000
00000000
00000000
00000000
00100000
00000000
00000000
00000000
00000000
00000000
01010000
00000000
00000000
00000000
,
00000000
00000000
00000100
00000000
00000000
00000000
00000000
00000000
00010010
00000000
00000000
00000000
00000000
01000000
00000000
01000000
,
00000000
00000011
00000000
00000000
00000000
00000000
00000000
00000000
00000100
00000000
00000100
00000000
00000000
00000000
11000000
00000000
,
00000000
00000000
00000000
00000100
00000000
00100000
00000000
00000100
00000000
01000000
00000000
00000100
00000000
00100000
00000000
00000010
,
00000000
01000000
00000000
00000100
00000000
00100000
00000000
00000010
00000000
00100000
00000000
00000010
00000000
00100000
00000000
00000010
,
00000000
01000000
00000000
00000100
00000000
00100000
00000000
00000010
00000000
00000000
01000000
00000000
00000000
00000000
00000100
00000000
,
00100000
00000100
01000000
00000100
00100000
00000010
00100000
00000100
,
01000000
00000100
00100000
00000010
00000100
00100000
01000000
00000100
,
00100000
00000100
00000010
00100000
00000100
01000000
00000010
00000000
,
00000000
11000000
00000000
00000000
00000000
00000000
00010100
00000000
00000000
00000000
00000000
00000000
01000000
00000000
00000000
00000000
,
00000000
00000000
00000010
00000000
00000000
00000000
00000000
00000000
00110000
00000000
00000100
00000000
01000000
00000000
00000000
00000100
,
00000000
01000000
00000000
00000000
01000010
00000000
00000100
00000000
,
00000000
00000000
00000000
00110000
00000000
00000000
00000000
00000000
00000000
00000110
00000000
00000000
00000000
00000000
00000000
00100000
,
00000000
00000000
00000000
11000000
00000000
00000000
00000000
00000000
00000000
00000100
00000000
00000000
00000000
00000000
00000000
00000011
,
00000000
00000000
00000000
00000000
00100000
00000000
00000100
00000000
01000000
00000000
00000100
00000000
00000010
00000000
00000000
10100000
,
00000000
00000000
00000000
00000000
00010100
00000000
00000000
00000000
00000000
00000000
01000000
00000000
00000000
01000000
00000000
00000000
,
00000011
00000000
00000000
00000000
00000000
00000100
00000000
00000100
00000000
00000000
00000000
00110000
00000000
00000000
00000000
00000000
,
00000000
00100100
00000000
00000010
00000000
11000000
00000000
00000000
00000000
00000000
00000000
00000100
00000000
00000000
01000000
00000000
,
00000000
00000011
00000000
00000000
00000000
00000000
00000000
10000000
00000000
00000000
00010000
00000000
00000000
10000100
00000000
00000000
,
00000000
00000000
00000011
00000000
00000000
00000000
00000000
00000000
00100000
00000000
00000000
00000000
00000000
00000100
00000000
01000000
,
00000000
00000100
00000000
00100000
00000000
01000000
00000000
00000100
00000000
00100000
00000000
00000100
00000000
01000000
00000000
00000010
,
00000000
00100000
00000000
00000100
00000000
01000000
00000000
00000100
00000000
00100000
00000000
00000010
00000000
00000100
00000000
00100000
,
00000000
00000100
00000000
00000100
00000000
00100000
00000000
00000100
00000000
01000000
00000000
00000010
00000000
01000000
00000000
01000000
,
00000000
00000100
00000000
00100000
00000000
00000010
00000000
00000010
00000000
01000000
00000000
00000100
00000000
00100000
00000000
00000010
,
00000000
00000100
00000000
01000000
00000000
01000000
00000000
00000100
00000000
00100000
00000000
00000010
00000000
01000000
00000000
00000100
,
00000000
00100000
00000000
00100000
00000000
00000100
00000000
00000010
00000000
01000000
00000000
00000100
00000000
00100000
00000000
00000010
,
00000000
00000010
00000000
00100000
00000000
01000000
00000000
00000100
00000000
00100000
00000000
00000010
00000000
00000100
00000000
00100000
,
00000000
00100000
00000000
00000100
00000000
01000000
00000000
00000010
00000000
00000010
00000000
00100000
00000000
00000100
00000000
00000010
,
00000000
01000000
00000000
01000000
00000000
00000010
00000000
00000010
00000000
00100000
00000000
00000100
00000000
00100000
00000000
01000000
,
00000000
00000100
00000000
01000000
00000000
00000010
00000000
00100000
00000000
00000010
00000000
01000000
00000000
00000010
00000000
01000000
,
00000000
00000100
00000000
00100000
00000000
00000100
00000000
01000000
00000000
00100000
00000000
00000100
00000100
00000100
00000100
01000000
,
00000000
00000000
00000000
00000000
00000000
00000000
00000000
00010000
00000000
00000000
00000000
00000000
00000000
00000000
00000000
00000000
,
00000000
10000001
00000000
00000000
,
00000000
00000000
00000000
00100000
,
00000000
00000000
00000000
00010000
00000000
00000000
00000000
00000001
00000000
00000000
00000000
00100000
00000000
11000000
00000000
00000000
,
00000100
00000000
00000000
00000000
00000000
00000000
00000100
00000000
00000000
00000000
00000000
00000000
00000000
00000000
00000000
00000000
00000000
00000000
00100000
00000000
00000000
00000000
00000000
00000000
00000000
00000000
00000000
00000100
00000000
00000000
00000000
00000000
01000000
00000000
00000000
00000000
00000100
00000000
00000000
00000000
00100000
00000000
00000000
00000000
00000000
00000000
00000000
00000000
,
00000000
00000000
00000000
00000000
00000000
00000000
00010000
00000000
00000000
00100000
00000000
00000000
00100000
00000000
00000000
00000100
00000000
00000000
01000000
00000000
00000011
00000000
00000000
00100000
,
00000000
00000000
00000100
00000000
00000000
00100000
00000000
00000100
00000000
00000000
00000000
00000000
00000000
00000000
10000001
00000000
00010000
00000000
00000000
00000000
00000000
00000000
00000000
00100000
,
00000000
00000000
00100000
00000000
00000000
00000000
00000101
00000000
00000000
00000000
01000000
00000000
00010000
00000000
00000000
00000100
00000000
00000000
00000011
00000000
00000000
00000000
00000000
00000000
,
01000000
00000000
00000000
00000000
00000100
00000000
00000000
00000000
00100000
00000000
00000100
00000000
00000000
01000000
00000000
00000100
,
00000000
00000000
00000000
00000000
00000000
00000000
00000000
00000000
00000000
00100000
00000000
00000000
00000000
00000000
00000000
00000000
00000100
00000000
00000000
00000000
00000000
00000000
00000000
00000000
00000000
00000000
00000000
01000000
00000000
00000000
00000000
00000000
00000000
00000100
00000000
00000000
00000000
00000000
00000000
00000000
00000000
00000000
00000010
00000000
00000000
00000000
00000000
00000000
,
01000000
00000000
00000000
00000000
00000100
00000000
00000000
01000000
00000000
00000000
00000100
00000000
00000000
00100000
00000000
00000010
,
00000000
01000000
00000000
00000000
00000100
00000000
00000000
00100000
00000000
01000000
00000000
00100000
00000000
00000100
00000000
00100000
,
00000000
00000010
00000000
01000000
00000000
00000100
00000000
00100000
00000000
00000010
00000000
01000000
00000000
00000100
00000000
00100000
,
00000000
00000010
00000000
00000010
00000000
01000000
00000000
01000000
00000000
00000100
00000000
00100000
00000000
00000010
00000000
00000100
,
00000000
00100000
00000000
01000000
00000000
00000100
00000000
00000100
00000000
00100000
00000000
00000010
00000000
01000000
00000000
00000100
,
00000000
00100000
00000000
00000010
00000000
00000010
00000000
00100000
00000000
00000100
00000000
00100000
00000000
00100000
00000000
00000010
,
00000000
01000000
00000000
00000100
00000000
00100000
00000000
00000010
00000000
00000010
00000000
01000000
00000000
00100000
00000000
00000100
,
00000000
01000000
00000000
00000010
00000000
00000100
00000000
00100000
00000000
00000100
00000000
01000000
00000000
00000010
00000000
00000100
,
00000000
00100000
00000000
00000100
00000000
01000000
00000000
00100000
00000000
00000100
00000000
01000000
00000000
00000010
00000000
00000100
,
00000000
00100000
00000000
00000010
00000000
00000010
00000000
01000000
00000000
00100000
00000000
00000100
00000000
00000100
00000000
00100000
,
00000000
01000000
00000000
00000010
00000000
00100000
00000000
00100000
00000000
00000010
00000000
01000000
00000000
00000010
00000000
00100000
,
00000000
00000100
00000000
01000000
00000000
00000010
00000000
00000010
00000000
01000000
00000000
00000100
00000000
00100000
00000000
00000010
,
00000000
00000100
00000000
01000000
00000000
00100000
00000000
00000100
00000000
01000000
00000000
00000010
00000000
00000100
00000000
00100000
,
00000000
01000000
00000000
00000100
00000000
00100000
00000000
00000100
00000000
01000000
00000000
00000010
00000000
00000100
00000000
00100000
,
00000000
00000010
00000000
01000000
00000000
00000100
00000000
00000010
00000000
01000000
00000000
01000000
00000000
00000100
00000000
01000000
,
00000000
00000100
00000000
00100000
00000000
00000010
00000000
00000100
00000000
00100000
00000000
00000010
00000000
01000000
00000000
00000100
,
00000000
00100000
00000000
00000010
00000000
00000100
00000000
00100000
00000000
01000000
00000000
00000100
00000000
00100000
00000000
00000010
,
00000000
01000000
00000000
00000100
00000000
00100000
00000000
00000010
00000000
00000010
00000000
01000000
00000000
00000100
00100000
00000000
,
00100000
00000010
00100000
01000000
00000100
00100000
00100000
00000010
,
00100000
00000010
01000000
00000100
00100000
00000010
00000100
00100000
,
01000000
00000010
00000100
00100000
00000010
01000000
00000100
00100000
,
00000010
00000100
01000000
00000100
00100000
00000010
00100000
00000100
,
00100000
00000010
01000000
00000100
00100000
01000000
00000100
00100000
,
00000100
01000000
00000100
00100000
00000010
00000100
01000000
00000010
,
00100000
00000100
01000000
00000010
00100000
00000100
01000000
00100000
,
00000010
00000100
00100000
00000100
01000000
00000010
00100000
00000100
,
01000000
00100000
00000010
01000000
00000100
00100000
00000010
01000000
,
00000100
00100000
00000010
00000100
01000000
00100000
00000010
01000000
,
00000010
00100000
00000010
00100000
00000010
00000100
01000000
00100000
,
00000010
00000100
01000000
00100000
00000010
01000000
00000100
01000000
,
00000100
00100000
00000010
00000100
01000000
00000010
00100000
00000100
,
01000000
00000010
00100000
00000100
01000000
00000100
00100000
00000010
,
01000000
00000000
00000000
00000000
;
