#TITLE:[REMIX] WRONG OR RIGHT;
#SUBTITLE:;
#ARTIST:DMX;
#TITLETRANSLIT:;
#SUBTITLETRANSLIT:;
#ARTISTTRANSLIT:;
#GENRE:;
#CREDIT:locuuraa;
#LYRICSPATH:;
#MUSIC:[REMIX] WRONG OR RIGHT.ogg;
#OFFSET:0.600;
#SAMPLESTART:11.940;
#SAMPLELENGTH:12.000;
#SELECTABLE:YES;
#BPMS:0.000=151.000,176.000=100.680;
#STOPS:;
#KEYSOUNDS:;
#BANNER:[REMIX] WRONG OR RIGHT.png;
#BACKGROUND:[REMIX] WRONG OR RIGHT.png;
#CDTITLE:../CDTitles/4DSS.png;
#BGCHANGES:-14.700=[REMIX] WRONG OR RIGHT.avi=1.000=0=0=1,
229.000=[REMIX] WRONG OR RIGHT.png=1.000=0=0=1,
99999=-nosongbg-=1.000=0=0=0
;
#NOTES:
     ds3ddx-single:
     Remix:
     Challenge:
     6:
     :
00000000
00000000
00000001
00000000
,
00000000
10000000
00010000
00000000
,
00010000
00000000
00000000
10000000
,
00000000
00000000
00000000
00000000
00000001
00000000
00000000
00000001
,
00000000
10000000
00000001
00000000
,
00001000
00000000
00000000
00000000
,
00000000
00000000
00000000
00000000
01000000
01000000
00000000
00000100
,
00000000
00000000
01000000
00000000
00000000
00000011
00000000
00000000
,
00100000
00000000
00000000
00000010
00000000
00000000
10100000
00000000
,
00000000
00000101
00000000
00000000
00100000
00000010
00000000
00100000
,
00000000
00000000
00000010
00000010
00000000
11000000
00000000
00000000
,
00000100
01000000
00000000
00000101
00000000
00000000
01000000
00000000
,
00000000
00000010
00000000
00000000
00100100
01000000
00000000
00000011
,
00000000
00000000
00100000
00000100
00000000
00100000
00000000
00000000
,
00000100
00000000
00000000
00010010
00000000
00000000
00100000
00000000
,
00000000
01010000
00000000
00000000
00000010
00000010
00000000
10100000
,
00000000
00000000
00000010
01000000
00000000
00000101
00000000
00000000
,
00100000
00000100
00000000
01000000
00000010
00000000
11000000
00000000
,
00000000
00000011
00000000
00000000
00100000
00100000
00000000
00000010
,
00000000
00000000
00000100
00000100
00000000
01000000
00000000
00000000
,
00100000
00000100
00000000
00100000
00000000
00000000
00000001
00010000
,
00000000
00100000
00000000
00000000
10000000
00000001
00000000
00100000
,
00000000
00000000
01000000
00000010
00000000
01000010
00000000
00000000
,
00000100
00100000
00000000
11000010
00000000
00000000
01000000
00000000
,
00000000
00000011
01000000
00000000
00000010
00000010
00000000
11000000
,
00000000
00000000
00010100
01000000
00000000
00000010
00000000
00000000
,
01000000
01000000
00000000
10000010
00000000
00000000
00000100
00000100
,
00000000
00100001
00000000
00000000
00000100
00000000
00000000
00000010
,
00000000
00000000
00100000
01000000
00000000
00100000
00000000
00000000
,
00100000
00000000
00000000
01000000
00000000
00000000
00000100
00000010
,
00000000
00000100
00000000
00000000
01000000
01000000
00000000
00000101
,
00000000
00000000
00100000
00000100
00000000
11000000
00000000
00000000
,
00000010
01000000
00000000
00000011
00000000
00000000
00100000
00000010
,
00000000
00100000
00000000
00000000
00000010
01000000
00000000
11000011
,
00000000
00000000
00000100
00100000
00000000
00110100
00000000
00000000
,
01000000
00000010
00000000
01000000
00000010
00000000
01000000
00000010
,
00000000
01000000
00000000
00000000
00000011
00000000
00000000
00100000
,
00000000
00000000
00000100
00100000
00000000
00000010
00000000
00000000
,
01000000
01000000
00000000
00000011
00000000
00000000
01000000
00000010
,
00000000
00100100
00000000
00000000
00000100
00100000
00000000
00000011
,
00000000
00000000
01000000
01000000
00000000
00000011
00000000
00000000
,
00000100
00000100
00000000
01000000
00000000
00000011
11000000
00000000
,
00000000
00000100
00000000
00000000
10100000
00000000
00000000
00000101
,
00000000
00010100
00000000
11000011
,
00010000
00000101
01000000
00000010
,
00100000
01010000
00000100
00010010
,
00100000
10110000
00000100
00001001
,
00100000
00000101
00100000
10000000
,
00000100
00011010
00100000
01001000
,
00000010
00100000
00000010
00000000
00100000
00000000
00110100
00000000
,
00000100
10010000
00100000
00000001
,
10000000
00000000
00010000
00000000
00010000
00000001
10100000
00000000
,
00010001
00000000
00000001
10000000
,
00000001
00010000
10000000
10000000
,
00000010
00000000
00010000
00000000
,
10000000
10000001
00010000
00010000
,
00100000
00000010
01000000
00000101
,
11000000
11000000
00000011
01000000
,
00000100
10100000
00010000
00000100
,
00100000
10000001
00000010
00000010
,
00100000
00000000
10100011
00000000
00100000
00000100
11000000
00000000
,
00000010
00000010
11000000
00000000
00000010
01000000
00000100
00000000
,
00100000
00100000
00000100
01000000
,
00000011
10000000
00010000
10000001
,
00100000
00000000
00100100
00000000
00100000
01000000
01100000
00000000
,
00000100
00000010
00000100
00000000
01000000
01000000
00000011
00000000
,
00100000
00000100
00000010
01000000
,
00100000
00000000
00000100
00000000
10100100
00000000
00000100
00100000
,
00000101
01000000
00000010
11000000
,
00000100
00100000
10010000
00000100
,
00010101
00100000
01011000
00000010
,
01000000
00000000
00000100
00000000
00100100
00010000
00100100
00010000
,
01000000
00000000
00000010
00000000
01000000
01000000
00000011
00000000
,
00100000
00000000
00000100
00000000
00100000
00100000
10000000
00000000
,
00000001
00100000
00000100
11000000
,
00000100
01000000
01000100
00000100
,
10100000
00000000
00000010
00000000
10000000
00010000
00000101
00000000
,
00100000
00000000
00000101
00000000
00000001
00010000
00000011
00000000
,
00100000
00000000
00000010
00000000
10000000
00010000
01000000
00000000
,
00000010
00000010
00100000
00000000
00000100
00100000
00000101
00000000
,
00100000
01100000
00000100
00000110
,
00100000
00000100
11000000
00000000
00000100
01000000
10000101
00000000
,
01000000
01000010
10000010
01000001
,
00010000
00000000
00010000
00000000
00100100
00000010
11000000
00000000
,
00000101
01000000
00000010
10100000
,
00010000
00010000
00000010
10000000
,
00010101
10010000
00000010
00000010
,
01000001
00001000
00010000
00000100
,
10100000
10000000
00000001
00010000
,
10000001
00000000
00000100
00100000
00000011
00000000
01000000
00000000
,
00000101
00000000
00010000
10000000
00000101
00000000
00000101
00010000
,
11000000
00000100
00100000
01000000
,
00000010
00000100
00100000
00000100
,
00110101
00000000
01000000
01000000
00000010
00000000
01000000
00000000
,
00010100
00100000
01000000
00000100
,
00000010
01000000
10000010
00000100
,
00010100
00000000
01000000
00000000
01000000
00000000
00000100
01000000
,
00000101
00000000
01000000
01000000
00000011
00000000
00100000
00000000
,
11000000
00000100
00010001
10000000
,
00011000
00000001
00001000
00000100
,
00100000
00000000
00000100
00100000
01001000
00000000
00000010
00000000
,
01000000
00000000
00010100
00000000
00100000
00000010
10100011
00000000
,
10000000
00000001
00010100
00000000
01000000
00000000
00000010
00000000
,
00010100
01000000
00000010
00000000
01000000
01000000
00000010
00000000
,
00000100
00000100
01000000
00000000
00100000
00000000
00000010
00000000
,
00010000
10000000
00000010
00000000
00010000
00000001
01000000
00000000
,
00010000
10000000
00000011
00000000
01000000
01000000
00000011
00000000
,
00010000
00000000
00000000
00000000
00000001
10000000
00000011
00000000
,
01000000
00000100
01000000
00000000
00000100
00100000
00000011
00000000
,
10000000
10000000
00010100
00000000
00000010
00000010
11000000
00000000
,
00000100
00100000
00000001
01000000
,
10000000
00000011
00100000
00010100
,
00100000
01000000
00100000
00000000
00000010
00000000
10000000
00000000
,
00000100
00010000
11000000
00000000
00000001
00000000
10000000
00000000
,
00010101
10000000
00010000
00100100
,
01000010
00000000
10000001
00000000
00000100
00000010
00010100
00000000
,
01000000
00000000
00000010
00000000
00100000
00000100
11000000
00000000
,
00000001
10000000
00010100
00000000
00010000
10000000
00000011
00000000
,
00100000
01000000
00100000
00000000
00000100
00000010
00000110
00000000
,
00100000
00100000
10000010
00000000
00000010
01000000
10000100
00000000
,
00000101
00000000
10100000
00000000
00000100
00100000
00000101
00000000
,
01000000
00000000
00000010
00000000
00010000
00010000
00010000
00000000
,
01000000
00000000
00000101
00000000
00100000
00100000
00000010
00000000
,
10100000
00010000
10100000
00000000
00010000
00000001
00010100
00000000
,
10000000
00000000
00000000
00000000
;
