#TITLE:[REMIX] Vision;
#SUBTITLE:Extended Ver.;
#ARTIST:潘玮柏;
#TITLETRANSLIT:;
#SUBTITLETRANSLIT:;
#ARTISTTRANSLIT:Will Pan;
#GENRE:;
#CREDIT:locuuraa;
#LYRICSPATH:;
#MUSIC:[REMIX] Vision.ogg;
#OFFSET:1.240;
#SAMPLESTART:11.500;
#SAMPLELENGTH:12.000;
#SELECTABLE:YES;
#BPMS:0.000=178.630;
#STOPS:;
#KEYSOUNDS:;
#BANNER:[REMIX] Vision.png;
#BACKGROUND:[REMIX] Vision.png;
#CDTITLE:../CDTitles/4DSS.png;
#BGCHANGES:-14.700=[REMIX] Vision.avi=1.000=0=0=1,
229.000=[REMIX] Vision.png=1.000=0=0=1,
99999=-nosongbg-=1.000=0=0=0
;
#NOTES:
     ds3ddx-single:
     Remix:
     Challenge:
     5:
     :
00000000
00000000
00000000
00000000
,
00000000
00000000
00000000
00000000
,
00000000
00000000
00000000
00000000
,
00000000
00000000
00000000
00000000
,
01000000
00000000
00000100
01000000
00000000
00000000
00000010
00000000
,
00100000
00000010
00000000
00000000
00100000
00000000
00000100
00100000
,
00000000
00000000
01000000
01000000
00000000
00000010
00000000
00000000
,
00000100
00000000
00100000
00000010
00000000
00000000
01000000
00000000
,
00000010
00100000
00000000
00000000
00100000
00000100
00100000
00000010
,
00000000
00000000
10000000
00000001
00000000
00000000
00000000
00000000
,
00000000
00000000
00000000
00000000
,
00000000
00000000
00000000
00000000
,
00000000
00000000
00000000
00000000
,
00000000
00000000
00000000
00000000
,
00000000
00000000
00000000
00000000
,
00000000
00000000
00000000
00000000
,
00000000
00000000
00000000
00000000
,
00000000
00000000
00000000
00000000
00000000
00000000
10000000
00000000
10000000
00000000
10000000
00000000
,
10000000
00000000
00000000
00000001
00000000
00000001
00000000
00000001
00000000
00000000
00000000
00000000
,
00000000
00000000
00000000
00000000
,
00000000
00000000
00000000
00000000
00000000
00000000
00000001
00000000
00000001
00000000
00000001
00000000
,
00000001
00000000
00000000
10000000
00000000
10000000
00000000
10000000
00000000
00000000
00000000
00000000
,
00000000
00000000
00000000
00000000
,
00000000
00000000
00100000
00010000
,
10000000
00000000
00000000
00100000
00000000
00000100
00000000
00100000
00000000
00000000
00000000
00000000
,
00000000
00000000
00000000
00000000
,
00000000
00000000
00000000
00000000
00000000
00000000
00100000
00000000
00000100
00000000
10000000
00000000
,
00000001
00000000
00000000
00100000
00000000
00100000
00000000
00000100
00000000
00000000
00000000
00000000
,
00100100
00000000
00000000
00000000
,
00000000
00000000
10000000
00000000
00000000
00000000
00100000
00000000
00000100
00000000
00000010
00000000
,
01000000
00000000
00000000
00100000
00000000
00000100
00000000
00000010
00000000
01000000
00000000
00000000
,
00100000
00000000
00000000
00000000
01100000
00000000
00000000
00000000
00000000
00000010
00000000
00000010
,
00000000
01000000
00000000
00000000
00000000
00000000
00000010
00000000
00000000
00000000
00000110
00000000
,
00000000
00000000
00000000
00100000
00000000
00100000
00000000
00000100
00000000
00000000
00000000
00000000
,
00100000
00000000
00000000
00000000
00010000
00000000
00000000
00000000
00000000
00000100
00000000
00000000
,
00000000
10000000
00000000
00000000
00000000
00000000
00000100
00000000
00000000
00000000
00000010
00000000
,
00000000
00000000
00000000
01000000
00000000
00100000
00000000
01000000
00000000
00000000
00000000
00000000
,
00000010
00000000
00000000
00000000
10000000
00000000
00000000
00000000
00000000
01000000
00000000
01000000
,
00000000
00000010
00000000
00000000
00000000
00000000
00001000
00000000
10000000
00000000
00001000
00000000
,
00000001
00000000
00000000
01000000
00000000
00000010
00000000
00100000
00000000
00000000
00000000
00000000
,
00000100
00000000
00000000
00000000
00100000
00000000
00000000
00000000
00000000
00000010
00000000
01000000
,
00000000
00100000
00000000
00000000
00000000
00000000
10100000
00000000
00000000
00000000
00000101
00000000
,
00000000
00000000
01010000
00000000
00000000
00000000
00010010
00000000
00000000
00000000
00000000
00000000
,
01000000
00000000
00000000
00000000
00000001
00000000
00000000
00000000
00000000
00000010
00000000
00000000
,
00000000
10000000
00000000
00000000
00000000
00000000
01000000
00000000
00000000
00000000
00100000
00000000
,
00000000
00000000
00000000
00000100
00000000
00000100
00000000
00100000
00000000
00000000
00000000
00000000
,
00000100
00000000
00000000
00000000
10000000
00000000
00000000
00000000
00000000
00100000
00000000
00000000
,
00000000
00000001
00000000
00000000
00000000
00000000
00100000
00000000
00000000
00000000
00000100
00000000
,
00000000
00000000
00000000
10000000
00000000
00000001
00000000
10000000
00000000
00000000
00000000
00000000
,
00000100
00000000
00000000
00000000
10000000
00000000
00000000
00000000
00000000
00000100
00000000
00000010
,
00000000
00000100
00000000
00000000
00000000
00000000
00010000
00000000
10000000
00000000
00010000
00000000
,
00000001
00000000
00000000
00000100
00000000
00000010
00000000
01000000
00000000
00000000
00000000
00000000
,
00100000
00000000
00000000
00000000
01000000
00000000
00000000
00000000
00000000
00000010
00000000
00000000
,
00000000
00000100
00000000
00000000
00000000
00000000
00100100
00000000
00000000
00000000
01100000
00000000
,
00000000
00000000
00000000
01000010
00000000
00000000
00000000
00000110
00000000
00000000
00000000
00000000
,
00000100
00000000
00000000
00000000
00000001
00000000
00000000
00000000
00000000
00100000
00000000
00000000
,
00000000
10000000
00000000
00000000
00000000
00000000
01000000
00000000
00000000
00000000
00010000
00000000
,
00000000
00000000
00000000
00000010
00000000
00000000
00000000
00000001
00000000
00000000
00000000
00000000
,
00000100
00000000
00000000
00000000
00000010
00000000
00000000
00000000
00000000
00000010
00000000
01000000
,
00000000
00110000
00000000
00000000
00000000
00000000
00100100
00000000
00000000
00000000
00000110
00000000
,
00000000
00000000
00000000
00000110
00000000
00000000
00000000
00010000
00000000
00000000
00000000
00000000
,
00000010
00000000
00000000
00000000
00001000
00000000
00000000
00000000
00000000
00000100
00000000
00000000
,
00000000
00010000
00000000
00000000
00000000
00000000
00100000
00000000
00000000
00000000
00000100
00000000
,
00000000
00000000
00000000
01000000
00000000
00000010
00000000
00010000
00000000
00000000
00000000
00000000
,
00010000
00000000
10000000
00000000
00010000
00000000
00000001
00000000
00000000
00100000
00000000
00000000
,
00000000
00000100
00000000
00000000
00000000
10000001
00000000
00000000
00000000
00000000
00000000
00000000
,
00000000
00000000
00000000
00000000
,
00100000
00000000
00000000
00000000
01100000
00000000
00000000
00000000
00000000
00000010
00000000
00000000
,
00000000
10000100
00000000
00000000
00000000
00000000
00010000
00000000
00000000
00000000
00010000
00000000
,
00000000
00000000
00000000
00010000
00000000
00000000
00000000
00000101
00000000
00000000
00000000
00000000
,
00100000
00000000
00000000
00000000
00000100
00000000
00000000
00000000
00000000
00100000
00000000
00000000
,
00000000
01000000
00000000
00000000
00000000
00000000
00001000
00000000
00000000
00000000
00001000
00000000
,
00000000
00000000
00000000
00001000
00000000
00000000
00000000
11000000
00000000
00000000
00000000
00000000
,
00000010
00000000
00000000
00000000
00010000
00000000
00000000
00000000
00000000
01000000
00000000
00000000
,
00000000
00001000
00000000
00000000
00000000
00000000
00010000
00000000
10000000
00000000
00001000
00000000
,
00000001
00000000
00000000
00100000
00000000
01000000
00000000
00000010
00000000
00000000
00000000
00000000
,
00100000
00000000
00000000
00000000
00000100
00000000
00000000
00000000
00000000
00000010
00000000
00000000
,
00000000
01000000
00000000
00000000
00000000
00000000
01000010
00000000
00000001
00000000
01000010
00000000
,
10000000
00000000
00000000
01000000
00000000
00010000
00000000
00000010
00000000
00010000
00000000
00000000
,
00000100
00000000
00000000
00000000
00000001
00000000
00000000
00000000
00000000
00100000
00000000
00000000
,
00000000
00010000
00000000
00000000
00000000
00000000
10100000
00000000
00000000
00000000
10100000
00000000
,
00000000
00000000
10100000
00000000
00000000
00000000
00000000
00010000
00000000
00000000
00000000
00000000
,
01000000
00000000
00000000
00000000
00000100
00000000
00000100
00000000
00010000
00000000
00000000
00000000
,
00000000
10000000
00000000
00000000
00000000
00000000
00000100
00000000
00000000
00000000
00000010
00000000
,
00000000
00000000
00000000
00100000
00000000
00100000
00000000
00010000
00000000
00000000
00000000
00000000
,
00100000
00000000
00000000
00000000
00000100
00000000
00000000
00000000
00000000
00000100
00000000
00000000
,
00000000
00100000
00000000
00000000
00000000
00000000
00010000
00000000
10000000
00000000
00010000
00000000
,
00000001
00000000
00000000
00100000
00000000
01000000
00000000
00100000
00000000
00000000
00000000
00000000
,
00000010
00000000
00000000
00000000
00000100
00000000
00000000
00000000
00000000
00100000
00000000
00000000
,
00000000
01000000
00000000
00010000
00000000
00000001
00000000
00000000
00000000
00000000
00000000
00000000
,
00000000
00000000
00000000
00000000
,
00100000
00000000
00000100
00000000
00100000
00000000
00000000
00000000
00000000
00010100
00000000
00000000
,
00000000
00110000
00000000
00000000
00000000
00000000
01000000
00000000
00000010
00000000
01000000
00000000
,
00000000
00000000
00000000
01000001
00000000
00000000
00000000
10000010
00000000
00000000
00000000
00000000
,
00000100
00000000
00000000
00000000
00010010
00000000
00000000
00000000
00000000
00110000
00000000
00000000
,
00000000
01000000
00000000
00000000
00000000
00000000
00000100
00000000
00000000
00000000
00000011
00000000
,
00000000
00000000
00000000
01000000
00000000
00000000
00000000
00110000
00000000
00000000
00000000
00000000
,
00100000
00000000
00010000
00000000
00000100
00000000
00000000
00000000
00000000
00110000
00000000
00000000
,
00000000
00110000
00000000
00000000
00000000
00000000
00000100
00000000
00010000
00000000
00100000
00000000
,
00000000
00000000
00000000
00010100
00000000
00000000
00000000
00010100
00000000
00000000
00000000
00000000
,
10100000
00000000
00000000
00000000
00000101
00000000
00000000
00000000
00000000
11000000
00000000
00000000
,
00000000
00000011
00000000
00000000
00000000
00000000
00000000
00000000
00000000
00000000
00000000
00000000
,
00000000
00000000
00000000
00000000
,
01000000
00000000
00000100
01000000
00000000
00000000
00000010
00000000
,
00100000
00000010
00000000
00000000
00100000
00000000
00000100
00100000
,
00000000
00000000
01000000
01000000
00000000
00000010
00000000
00000000
,
00000100
00000000
00100000
00000010
00000000
00000000
01000000
00000000
,
00000010
00100000
00000000
00000000
00100000
00000100
00100000
00000000
,
00000010
00000000
00000000
10000000
00000000
00000001
00000000
10000000
00000000
00000000
00000000
00000000
,
00100000
00000000
01000000
00000000
00000001
00000000
00000000
00000000
00000000
00000100
00000000
00000010
,
00000000
10000000
00000000
00000000
00000000
00000000
00100000
00000000
00000000
00000000
10000000
00000000
,
00000001
00000000
00010000
00000000
00000000
00000000
00000000
10000001
00000000
00000000
00000000
00000000
,
00100000
00000000
00000100
00000000
00100000
00000000
00000000
00000000
00000000
00000010
00000000
01000000
,
00000000
00000010
00000000
00000000
00000000
00000000
00010000
00000000
00000000
00000000
00000000
00000000
,
00000000
00000000
00000000
00100000
00000000
00000100
00000000
00000000
00000100
00000000
00100000
00000000
,
10000000
00000000
10000000
00000000
10000000
00000000
10000000
00000000
00000000
00000001
00000000
00000001
,
00000000
00000001
00000000
00000000
00000000
00000000
00000000
00000000
00000000
00000000
00000000
00000000
,
00000000
00000000
00000000
00000000
,
00000001
00000000
00000001
00000000
00000001
00000000
00000001
00000000
00000000
10000000
00000000
10000000
,
00000000
10000000
00000000
00000000
00000000
00000000
00000000
00000000
00000000
00000000
00000000
00000000
,
00000000
00000000
00000000
00000000
00000000
00000000
00000000
00000000
00000000
00000000
00000000
00100000
,
00000000
00000000
00010000
00000000
00000000
10000000
00000000
00000000
00100000
00000000
00000100
00000000
,
00100000
00000000
00000000
00000000
,
00000000
00000000
00000000
00000000
00000000
00000000
00000000
00000000
00000000
00000000
00000000
00100000
,
00000000
00000100
00000000
10000000
00000000
00000001
00000000
00000000
00100000
00000000
00100000
00000000
,
00000100
00000000
00000000
00000000
00000000
00100100
00000000
00000000
00000000
00000000
00000000
00000000
,
00000000
00000000
00000000
00000000
00000000
00000000
00000110
00000000
00000000
00000000
00000000
00000100
,
00000000
00000000
00000000
00000001
00000000
00000000
00000000
00000000
00100000
00000000
00000000
00000000
,
10000000
00000000
00000000
00000000
00000000
01000000
00000000
00000000
00000000
00010000
00000000
00000000
,
00000000
00000000
00000010
00000000
00000000
00000000
00000001
00000000
00000000
00000000
00000000
00000100
,
00000000
00000000
00000000
00000010
00000000
00000000
00000000
00000000
00000010
00000000
01000000
00000000
,
00110000
00000000
00000000
00000000
00000000
00100100
00000000
00000000
00000000
00000110
00000000
00000000
,
00000000
00000000
00000110
00000000
00000000
00000000
00010000
00000000
00000000
00000000
00000000
00000010
,
00000000
00000000
00000000
00001000
00000000
00000000
00000000
00000000
00000100
00000000
00000000
00000000
,
00010000
00000000
00000000
00000000
00000000
00100000
00000000
00000000
00000000
00000100
00000000
00000000
,
00000000
00000000
01000000
00000000
00000010
00000000
00010000
00000000
00000000
00000000
00000000
00010000
,
00000000
10000000
00000000
00010000
00000000
00000001
00000000
00000000
00100000
00000000
00000000
00000000
,
00000100
00000000
00000000
00000000
10000001
00000000
00000000
00000000
00000000
00000000
00000000
00000000
,
00000000
00000000
00000000
00000000
00000000
00000000
00000000
00000000
00000000
00000000
00000000
00100000
,
00000000
00000000
00000000
01100000
00000000
00000000
00000000
00000000
00000010
00000000
00000000
00000000
,
10000100
00000000
00000000
00000000
00000000
00010000
00000000
00000000
00000000
00010000
00000000
00000000
,
00000000
00000000
00010000
00000000
00000000
00000000
00000101
00000000
00000000
00000000
00000000
00100000
,
00000000
00000000
00000000
00000100
00000000
00000000
00000000
00000000
00100000
00000000
00000000
00000000
,
01000000
00000000
00000000
00000000
00000000
00001000
00000000
00000000
00000000
00001000
00000000
00000000
,
00000000
00000000
00001000
00000000
00000000
00000000
11000000
00000000
00000000
00000000
00000000
00000010
,
00000000
00000000
00000000
00010000
00000000
00000000
00000000
00000000
01000000
00000000
00000000
00000000
,
00001000
00000000
00000000
00000000
00000000
00010000
00000000
10000000
00000000
00001000
00000000
00000001
,
00000000
00000000
00100000
00000000
01000000
00000000
00000010
00000000
00000000
00000000
00000000
00100000
,
00000000
00000000
00000000
00000100
00000000
00000000
00000000
00000000
00000010
00000000
00000000
00000000
,
01000000
00000000
00000000
00000000
00000000
01000010
00000000
00000001
00000000
01000010
00000000
10000000
,
00000000
00000000
01000000
00000000
00010000
00000000
00000010
00000000
00010000
00000000
00000000
00000100
,
00000000
00000000
00000000
00000001
00000000
00000000
00000000
00000000
00100000
00000000
00000000
00000000
,
00010000
00000000
00000000
00000000
00000000
10100000
00000000
00000000
00000000
10100000
00000000
00000000
,
00000000
10100000
00000000
00000000
00000000
00000000
00010000
00000000
00000000
00000000
00000000
01000000
,
00000000
00000000
00000000
00000100
00000000
00000100
00000000
00010000
00000000
00000000
00000000
00000000
,
10000000
00000000
00000000
00000000
00000000
00000100
00000000
00000000
00000000
00000010
00000000
00000000
,
00000000
00000000
00100000
00000000
00100000
00000000
00010000
00000000
00000000
00000000
00000000
00100000
,
00000000
00000000
00000000
00000100
00000000
00000000
00000000
00000000
00000100
00000000
00000000
00000000
,
00100000
00000000
00000000
00000000
00000000
00010000
00000000
10000000
00000000
00010000
00000000
00000001
,
00000000
00000000
00100000
00000000
01000000
00000000
00100000
00000000
00000000
00000000
00000000
00000010
,
00000000
00000000
00000000
00000100
00000000
00000000
00000000
00000000
00100000
00000000
00000000
00000000
,
01000000
00000000
00010000
00000000
00000001
00000000
00000000
00000000
00000000
00000000
00000000
00000000
,
00000000
00000000
00000000
00000000
,
01000000
00000000
00100000
00000000
00000100
00000000
00000010
00000000
01000000
00000000
00100000
00000000
,
00000100
00000000
00000010
00000000
00000000
00000000
10100000
00000000
00000000
00000000
00000101
00000000
,
00000000
00000000
00000000
00100000
00000000
01000000
00000000
00000011
00000000
00000000
00000000
00000000
,
00100000
00000000
00000000
00000000
10000001
00000000
00000000
00000000
00000000
00000100
00000000
00100000
,
00000000
00000100
00000000
00000000
00000000
00000000
11000000
00000000
00000000
00000000
00000011
00000000
,
00000000
00000000
00000000
01000000
00000000
00000010
00000000
00010000
00000000
00000000
00000000
00000000
,
00000100
00000000
00000000
00000000
00011000
00000000
00000000
00000000
00000000
00100000
00000000
01000000
,
00000000
00100000
00000000
00000000
00000000
00000000
10000000
00000000
00000001
00000000
00000000
00000000
,
00000000
00000000
00000000
10000001
00000000
00000000
00000000
00011000
00000000
00000000
00000000
00000000
,
00100000
00000000
00000000
00000000
00000100
00000000
00000000
00000000
00000000
01000000
00000000
00000010
,
00000000
01000000
00000000
00000000
00000000
00000000
00000001
00000000
00000001
00000000
00000001
00000000
,
00000001
00000000
00000000
10000000
00000000
10000000
00000000
10000000
00000000
00000000
00000000
00000000
,
00100000
00000000
00000100
00000000
10000000
00000000
00000001
00000000
00000000
00010000
00000000
00000000
,
00000000
00000000
00000000
00000000
00000000
00000000
00100000
00000000
00000100
00000000
00000010
00000000
,
01000000
00000000
00000000
00100000
00000000
00000100
00000000
00000010
00000000
01000000
00000000
00000000
,
10000000
00000000
00000000
00000000
;
