#TITLE:[REMIX] VOOK + BEAT OF THE WAR + SOLITARY;
#SUBTITLE:;
#ARTIST:BanYa;
#TITLETRANSLIT:;
#SUBTITLETRANSLIT:;
#ARTISTTRANSLIT:;
#GENRE:;
#CREDIT:locuuraa;
#LYRICSPATH:;
#MUSIC:[REMIX] VOOK + BEAT OF THE WAR + SOLITARY.ogg;
#OFFSET:0.460;
#SAMPLESTART:11.800;
#SAMPLELENGTH:12.000;
#SELECTABLE:YES;
#BPMS:0.000=184.000,353.000=140.100,359.000=140.100,360.000=140.100,363.000=140.100,398.000=200.000,497.000=1.000,497.083=136.100,500.000=136.100,623.000=68.000,625.000=136.100,636.000=136.100,689.000=68.000,690.000=136.100,701.000=136.100,704.000=68.000;
#STOPS:;
#KEYSOUNDS:;
#BANNER:[REMIX] VOOK + BEAT OF THE WAR + SOLITARY.png;
#BACKGROUND:[REMIX] VOOK + BEAT OF THE WAR + SOLITARY.png;
#CDTITLE:../CDTitles/4DSS.png;
#BGCHANGES:-14.700=[REMIX] VOOK + BEAT OF THE WAR + SOLITARY.avi=1.000=0=0=1,
229.000=[REMIX] VOOK + BEAT OF THE WAR + SOLITARY.png=1.000=0=0=1,
99999=-nosongbg-=1.000=0=0=0
;
#NOTES:
     ds3ddx-single:
     Remix:
     Challenge:
     7:
     :
00000000
00000000
00000000
00000000
,
00100000
00000000
00000000
00000100
00000000
00000000
00000000
00000000
00000000
10100000
00000000
00000000
00000000
00000000
00000010
00000000
01000000
00000000
00000010
00000000
01000000
00000000
00000010
00000000
,
11000000
00000000
00000000
00000000
00000000
00000100
00100000
00000000
,
00000101
00000000
00000000
00000000
01000000
00000010
01000000
00000010
01000000
00000011
00000000
00000000
,
00000000
00000000
00000000
00000000
00000000
00000000
00000100
00100000
,
00000000
00000000
00000000
00000101
00000000
00000000
00000000
00000000
00100000
00000000
00000100
00000000
00100000
00000000
00000100
00000000
01000000
00000000
00000010
00000000
01000000
00000000
00000010
00000000
,
00000000
00000000
00000000
00000000
00000000
00000000
00000010
01000000
,
00000000
00000000
00000000
00010100
00000000
00000000
00000000
00000000
00100000
00000000
00000100
00000000
00100000
00000000
00000100
00000000
01000000
00000000
00000011
00000000
00000000
00000000
00000000
00000000
,
00000000
00000000
00000000
00000000
,
01000000
00000010
00100000
00000000
00000100
00000000
01000000
00000010
,
11000000
00000000
00000100
01000000
00000101
00000000
01000000
00000000
,
00000100
00100000
00000011
00000000
01000000
00000000
00000100
00100000
,
00000100
00100000
00000100
00100000
,
00000100
00000010
00000100
00000000
00100000
00000000
01000000
00000000
,
00100000
01000000
00100000
00000000
00000100
00000000
00000010
00000000
,
00100000
00000100
10100000
00000000
00000101
00000000
01000000
00000010
,
01000000
00000000
00000100
01000000
00000100
01000000
00000000
00100000
,
00000100
01000000
00000010
00000000
00000100
00000000
01000000
00000000
,
00000100
01000000
00100000
00000010
01000000
00000010
00100000
00000000
,
00000010
00000000
01000000
01000000
00000010
00000000
00100000
00000000
,
00000100
00000010
00100000
01000000
00000100
01000000
00000011
00000000
,
11000000
00000000
00000010
00000010
00100000
00000000
00000010
00000000
,
01000000
00000100
00100000
00000100
01000000
00000010
11000000
00000000
,
00000100
00000000
01000000
01000000
00000100
00000000
00100000
00000000
,
00000100
00000010
00000100
00100000
00000100
01000000
00000000
00000000
,
00000100
00000010
00000100
00000010
00000100
00000010
00000100
00100000
,
00000010
00100000
01000000
00000100
00100000
00000010
00000100
00100000
,
01000000
00000010
00100000
00000100
01000000
00100000
00000100
00000010
,
00100000
00000100
11000000
00000011
00100000
00000100
00100000
01000000
,
00000010
00000100
00100000
01000000
00000010
00000010
01000000
00000100
,
00100000
00000100
01000000
00000010
00000100
00100000
01000000
00000010
,
00100000
00000100
01000000
00000010
01000000
00000100
00100000
00000100
,
00100000
01000000
00000010
00000100
01000000
00100000
00000010
00100000
,
00000000
00000100
00000010
00000100
00100000
01000000
00100000
00000100
,
00100000
00000010
01000000
00000100
00100000
01000000
00000010
01000000
,
00000100
00100000
00000010
01000000
00100000
00000100
00100000
01000000
,
00000010
00000100
00100000
00100000
00000100
01000000
00000010
01000000
,
01000000
00000010
00000000
01000000
01000000
00000100
00000000
00100000
,
00000100
00100000
00000000
00000010
00000010
01000000
00000000
00000100
,
00100000
00000010
00000000
01000000
01000000
00000100
00100000
00000010
,
00000000
01000000
00000100
00100000
00000010
01000000
00000100
00000000
,
00100000
01000000
00100000
01000000
00000000
00000000
00000100
00000010
00000100
00000010
00000000
00000000
,
00100000
00000100
00100000
00000100
00000000
00000000
01000000
00000010
01000000
00000010
00000000
00000000
,
00100000
01000000
00100000
01000000
00000000
00000000
00000100
00000010
00000100
00000010
00000000
00000000
,
00100000
00000100
00100000
00000100
00000000
00000000
00100000
00000010
00100000
01000000
00000000
00000000
,
00000100
00100000
00000100
00000010
00000000
00000000
01000000
00000010
01000000
00000100
00000000
00000000
,
00000100
00100000
00000010
01000000
00000000
00000000
00000100
00100000
00000100
00100000
00000000
00000000
,
00100000
00000100
01000000
00000010
00000000
00000000
00100000
01000000
00100000
01000000
00000000
00000000
,
00000100
00000000
01000000
00000000
00000010
00000000
00100000
00000000
00000000
00000000
00000000
00000000
00000100
00000000
00000000
01000000
00000000
00000000
00000100
00000000
00000000
01000000
00000000
00000000
,
00000100
00100000
01000000
00100000
01000000
00000010
01000000
00000100
,
01000000
00000010
01000000
00000100
00000100
00100000
00000010
01000000
,
00000010
00000010
00100000
00000100
00100000
01000000
00000010
00000010
,
00100000
00100000
00000100
01000000
00000010
00000010
00000100
00100000
,
01000000
00000010
00000010
00100000
00000010
01000000
00000100
01000000
,
00100000
00000100
01000000
00000010
00000010
00100000
01000000
00000100
,
00000010
00100000
01000000
00100000
00000100
00000010
00000100
00100000
,
00000100
01000000
00000100
00100000
00000010
01000000
00000100
00000100
,
00100000
00000100
01000000
00000010
00100000
00000100
00100000
00000100
,
00100000
01000000
00100000
01000000
00000100
00000010
00000100
00000010
,
00100000
00000010
01000000
00000100
00100000
01000000
00000100
00000010
,
01000000
00000100
00000010
00100000
00100000
00000100
01000000
00000100
,
00000010
00000100
00100000
01000000
00000010
00000010
00100000
00000010
,
01000000
00100000
00000100
00000010
01000000
00000100
00100000
00000100
,
00100000
00000010
00100000
00000100
00000010
00100000
00000010
01000000
,
00000100
00000010
00100000
01000000
00000010
00000100
00000100
00100000
,
00000010
01000000
00000100
01000000
00000100
01000000
00100000
00000100
,
00000010
01000000
00100000
01000000
00000100
00000010
00100000
00000100
,
01000000
00000010
00000010
01000000
00000100
01000000
00000100
01000000
,
00100000
00000100
00000010
01000000
00000010
01000000
00100000
00000010
,
00000100
01000000
01000000
00000100
00100000
00000010
01000000
00000100
,
00000010
00000100
00000010
00100000
01000000
00000010
01000000
00000100
,
01000000
00000100
00000100
00100000
00000010
01000000
00000010
00000100
,
00000010
01000000
00100000
01000000
00000010
00000100
00100000
01000000
,
00000010
01000000
01000000
00000010
00100000
00000100
00000010
01000000
,
00100000
00000100
00100000
00000010
01000000
01000000
00000010
00000100
,
01000000
00000100
00000100
00100000
00000010
01000000
00100000
00000010
,
00000010
00000100
00100000
01000000
00000010
00000100
00100000
01000000
,
00100000
00000100
00000100
00100000
00000010
01000000
00000100
00000010
,
00100000
00100000
00000100
01000000
00000010
00000100
00100000
01000000
,
00000100
00100000
00000010
00000010
01000000
00000100
00100000
00000010
,
00100000
00000000
00000000
01000000
00000000
00000000
00000010
00000000
00000000
01000000
00000000
00000000
00000100
00000000
00000000
00100000
00000000
00000000
00000100
00000000
00100000
00000000
00000000
00000000
,
00100000
01000000
00100000
01000000
00100000
01000000
00100000
01000000
00100000
01000000
00000000
00000000
,
00000100
00000000
00000010
00000000
01000000
00000000
00000100
00000000
00000000
00100000
00000000
00000000
00000100
00000000
00000000
01000000
00000000
00000000
00000010
00000000
00000000
00000000
00000000
00000000
,
00000100
00000010
00000100
00000010
00000100
00000010
00000100
00000010
00000100
00000010
00000000
00000000
,
00100000
00000100
01000000
00100000
00000010
00000100
00100000
00000100
,
00100000
01000000
00100000
01000000
00100000
01000000
00100000
01000000
00100000
01000000
00000000
00000000
,
00000100
00000000
00000010
00000000
00000000
00000000
01000000
00000000
00000000
00000100
00000000
00000000
00100000
00000000
00000000
00000100
00000000
00000000
01000000
00000000
00000000
00000010
00000000
00000000
,
00100000
00000100
00100000
00000100
00100000
00000100
00100000
00000100
00100000
00000100
00000000
00000000
,
10100000
00000010
00000000
00000010
,
00000000
00000010
00000000
10100000
,
01000000
00000100
00100000
00000010
01000000
01000000
00000010
00000100
,
00100000
00000010
01000000
00100000
00000100
00100000
11000011
00000000
,
00000100
00000100
00100000
00100000
00000010
00100000
00000100
01000000
,
00000100
00100000
00000010
01000000
00000100
01000000
11000101
00000000
,
00100000
00100100
00000010
01000010
00100000
01100000
00000100
00000110
,
00100000
00000010
00100000
00000010
00100000
00000010
10100011
00000000
,
01000000
01000010
00000100
00100100
00100000
01100000
00000100
00000110
,
01000000
01000010
00000100
00100100
00100000
00000100
00100101
00000000
,
00000010
11000000
00000000
00000000
00000101
00000000
00000000
00000000
,
00010100
00000000
00000000
00000000
01000000
00000000
00000100
00000000
00000000
00000000
00000000
00000000
00000100
00000000
00000000
01000000
00000000
00000000
00000100
00000000
00000000
01000000
00000000
00000000
,
00100000
00000100
00100000
01000000
00000100
00000010
00100000
00000100
,
01000000
00000010
01000000
00000100
00100000
00000100
00100000
00000010
,
01000000
00000010
01000000
00000100
00100000
00000100
00000010
01000000
,
00000100
00000100
00100000
01000000
00000010
00000100
01000000
00000100
,
00100000
00000010
01000000
00000010
00000100
01000000
00000010
01000000
,
00000100
00000010
00100000
01000000
00000010
00000010
01000000
00000100
,
00100000
01000000
00000100
00100000
00000100
01000000
00000010
00000100
,
00000010
00000100
00000010
01000000
00000100
01000000
00100000
00000100
,
00100000
00000010
01000000
01000000
00000100
00100000
00000010
00100000
,
01000000
00100000
00000100
00000010
00000100
01000000
00000010
00100000
,
00000100
01000000
00000010
00100000
01000000
00000100
00000010
00100000
,
00000100
00100000
01000000
00000010
01000000
00000100
00100000
00000010
,
00100000
00000010
01000000
01000000
00000010
00000100
00100000
00000010
,
01000000
00000100
00100000
00000100
00100000
00000100
00000010
00000100
,
00000010
00100000
01000000
00100000
01000000
00000100
00100000
00000010
,
00100000
00000100
01000000
00100000
00000010
01000000
00000100
00100000
,
00000100
01000000
00000100
00100000
00000010
00000010
01000000
00100000
,
00000100
00100000
00000010
00000100
01000000
00000100
00100000
00000010
,
01000000
00100000
00000100
00100000
00000010
01000000
00000010
00000100
,
00100000
00000100
01000000
00000010
00100000
00000010
01000000
00000100
,
01000000
00000100
01000000
00100000
00000010
00100000
01000000
00100000
,
01000000
00000100
00000010
00000100
01000000
00000100
00100000
00000100
,
01000000
01000000
00000010
00000010
01000000
00100000
00000100
00100000
,
01000000
00000010
00100000
00000100
00100000
00000100
01000000
00000011
,
00000000
00100000
00000000
00000000
00000000
00000000
10100000
00000100
,
01000000
00000010
00000100
01000000
00000101
00100000
00100000
00000010
,
00100000
00010100
01000000
00100000
00000010
01000000
00000100
00100000
,
00000010
00000010
01000000
00010100
00100000
00000011
01000000
00000100
,
00000010
00100000
01000000
00000010
11000000
00000000
00000100
00000100
,
10100000
00000100
00100000
00000101
01000000
00000100
11000101
00000000
,
00000100
01000000
00100000
00000100
01000000
00000100
00100000
01000000
,
00000100
00000010
00000100
00000010
00100000
01000000
00000100
01000000
,
00000010
00100000
00000100
00100000
00000100
00000000
10100101
00000000
,
00000100
00000010
00000110
00000000
00100000
00000010
01000000
00000000
,
00000100
00000000
00000000
00000110
00000000
00000000
01000000
00000000
00000010
00000000
00000000
00000000
00100000
00000000
00000000
00000010
00000000
00000000
00100000
00000000
00000000
01100000
00000000
00000000
,
00000100
00100000
00000100
01000000
00000010
01000000
11000011
00000100
,
00100000
00000010
01000000
00000100
01000000
00000100
01000000
00000100
,
00100000
00000011
01000000
00010100
01000000
00000100
01000000
00000100
,
00100000
01000000
00100000
01000000
00000100
00000010
00000100
00000010
,
00100000
00000011
01000000
00010100
00100000
00000010
00000100
01000000
,
10100000
00000000
00000000
00000101
00000000
00000000
01000000
00000000
00000000
00000010
00000000
00000000
00100000
00000000
00000101
00000000
00000000
00000000
00100000
00000000
00000000
01000000
00000000
00000000
,
00100000
01000000
00000100
00000010
00000100
00000010
11000000
00000100
,
00100000
00000101
01000000
00000010
00100000
00000010
00100000
01000000
,
00000100
01000000
00000010
00000100
01000000
00100000
00000101
00100000
,
00010100
01000000
00100000
00000010
00000100
00100000
11000000
00000100
,
00000010
00000100
00100000
01000000
00100000
00000010
01000000
00000011
,
01000000
00000100
00100000
00000100
11000000
00000011
00100000
01000000
,
00000100
00000010
00100000
00010100
00100000
00000010
01000000
00000100
,
00100000
00000010
01000000
00000100
00000010
01000000
00100000
00000100
,
01000000
01000000
00000010
00000010
00100000
00000100
01000000
00100000
,
00000100
00000100
01000000
00100000
00000011
01000000
01000000
00000010
,
00000100
00100000
01000000
00000010
00000010
11000000
00000100
00000100
,
00100000
00000010
01000000
00000100
00000100
01000000
00000010
00000100
,
11000000
00000100
00000010
00000100
00000010
00000100
00000010
00100000
,
01000000
00100000
00000100
01000000
00000010
00000100
00100000
00100000
,
00000010
01000000
01000000
00000010
00100000
00000101
11000000
00000000
,
00000011
11000000
00000010
00000100
00000010
01000000
00100000
01000000
,
00000010
00000100
00000010
01000000
00100000
00000100
01000000
00100000
,
00000100
01000000
01000000
00000010
00000010
00000100
00100000
01000000
,
00000010
00000100
00100000
01000000
00000010
00000100
01000000
00000100
,
00000010
00000100
00000010
00100000
01000000
01000000
00000100
00000010
,
01000000
00000100
01000000
00000010
00000100
01000000
00100000
00000010
,
01000000
00000100
00100000
00000100
00000010
01000000
00000100
00000010
,
00100000
01000000
00000100
01000000
00000100
01000000
00000100
01000000
,
00100000
00000100
00000010
01000000
00000010
00100000
00000100
00100000
,
01000000
00000010
00100000
01000000
00100000
01000000
00000100
00000010
,
00100000
00000100
01000000
01000000
00000010
00000100
01000000
00000100
,
00100000
00000010
00000010
00100000
01000000
00000010
00000100
00100000
,
00000010
00100000
00100000
00000010
01000000
00100000
00000100
00000100
,
01000000
00000010
01000000
01000000
00000100
00000100
00100000
01000000
,
00000010
01000000
00100000
00000010
01000000
00000100
01000000
00100000
,
00000010
00000010
00100000
01000000
00000010
00100000
00000100
00100000
,
00000010
00100000
00000000
00000000
00100000
00000100
01000000
00000010
,
01000000
00000100
00000100
01000000
00000100
01000000
00100000
00000010
,
00000100
01000000
00100000
01000000
00000100
00000010
01000000
00000100
,
01000000
00000100
00100000
00000010
01000000
01000000
00000010
00000100
,
10100000
00000000
00000000
00000000
00000000
00000000
00000000
00000000
00000000
00000000
00000000
00000000
00000000
00000000
00000000
00000000
00000000
00000000
00000000
00000000
00000000
00000000
00000000
00000000
00000000
00000000
00000000
00000000
00000000
00000000
00000100
00000000
00000000
00000000
00000000
00000000
00000000
00000000
00000000
00000000
00000000
00000000
00000000
00000000
00000000
00000000
00000000
00000000
00000000
00000000
00000000
00000000
00000000
00000000
00000000
00000000
10100000
00000000
00000000
00000000
00000000
00000000
00000000
00000000
00000000
00000000
00000000
00000000
00000000
00000000
00000000
00000000
00000000
00000000
00000000
00000000
00000000
00000000
00000000
00000000
00000000
00000000
00000000
00000000
00000100
00000000
00000000
00000000
00000000
00000000
00000000
00000000
00000000
00000000
00000000
00000000
00000000
00000000
00000000
00000000
00000000
00000000
00000000
00000000
00000000
00000000
00000000
00000000
00000000
00000000
00000000
00000000
00000000
00000000
00000000
00000000
00000000
00000000
00000000
00000000
00000000
00000000
00000000
00000000
00000000
00000000
00000000
00000000
00000000
00000000
00000000
00000000
00000101
00000000
00000000
00000000
00000000
00000000
00000000
00000000
00000000
00000000
00000000
00000000
00000000
00000000
00000000
00000000
00000000
00000000
00000000
00000000
00000000
00000000
00000000
00000000
00000000
00000000
00000000
00000000
00000000
00000000
00000000
00000000
00000000
00000000
00000000
00000000
00000000
00000000
00000000
00000000
00000000
00000000
00000000
00000000
00000000
00000000
00000000
00000000
00000000
00000000
00000000
00000000
00000000
00000000
00000000
00000000
00000000
00000000
00000000
00000000
,
11000011
00000000
00000000
00000000
;
