#TITLE:[REMIX] Tic!Toc;
#SUBTITLE:;
#ARTIST:SUPERJUNIOR;
#TITLETRANSLIT:;
#SUBTITLETRANSLIT:;
#ARTISTTRANSLIT:;
#GENRE:;
#CREDIT:locuuraa;
#LYRICSPATH:;
#MUSIC:[REMIX] Tic!Toc.ogg;
#OFFSET:0.680;
#SAMPLESTART:11.940;
#SAMPLELENGTH:12.000;
#SELECTABLE:YES;
#BPMS:0.000=105.900,137.000=159.010;
#STOPS:;
#KEYSOUNDS:;
#BANNER:[REMIX] Tic!Toc.png;
#BACKGROUND:[REMIX] Tic!Toc.png;
#CDTITLE:../CDTitles/4DSS.png;
#BGCHANGES:-14.700=[REMIX] Tic!Toc.avi=1.000=0=0=1,
229.000=[REMIX] Tic!Toc.png=1.000=0=0=1,
99999=-nosongbg-=1.000=0=0=0
;
#NOTES:
     ds3ddx-single:
     Remix:
     Challenge:
     5:
     :
00000000
00000000
00000000
00000000
,
00000000
00000000
00000000
00000000
00000000
00010000
00000000
00000000
00000000
00000000
00000000
00000000
00000000
10000001
00000000
00000000
,
00000000
00000000
00000000
00000000
00000000
00010000
00000000
00000000
00000000
00000000
00000000
00000000
10000000
00000000
00000000
00000000
,
00000000
00000000
00000000
00000000
00000000
00001000
00000000
00000000
00000000
00000000
00000000
00000000
00000001
00000000
00000000
00000000
,
00000000
00010000
00000000
10000000
,
00000000
00000010
00000010
01000000
,
01000000
00000100
00010000
00100000
,
10000000
00000010
01000000
00000011
,
01000000
00000101
00010100
00100000
,
01000000
00000100
00011010
01000000
,
00000100
10100000
00000001
10000000
,
00000100
00000000
00100000
00000000
00100100
00000000
00000100
01000000
,
00000101
00000000
01000000
00000000
01000000
00000000
00000100
00000100
,
00100000
00000011
00100000
10100000
,
00000100
00000000
00000101
00000000
01000000
00000000
01000000
00000010
,
00100000
00000010
01000000
00000100
,
00100000
10000010
00010000
00000101
,
00000000
00100000
00000100
00000010
,
01000000
00100000
00000100
10100000
,
00000010
00000000
10000001
00000000
00010000
00000000
00000100
00100000
,
00000011
00000000
00000000
00000000
00000000
00000000
00000000
00000000
00000000
00000000
00000000
00000000
00000000
00000000
00000000
00000000
00000000
00000000
00000000
00000000
00000000
00000000
00000000
00000000
00000000
00000000
00000000
00000000
00000000
00000000
00000000
00000000
00000000
00000000
00000000
00000000
00000000
00000000
00000000
00000000
00000000
00000000
00000000
00000000
00000000
00000000
00000000
00000000
01000000
00000000
00000000
00000000
00000000
00000000
00000000
00000000
00000000
00000000
00000000
00000000
00000000
00000000
00000000
00000000
00000000
00000000
00000000
00000000
00000000
00000000
00000000
00000000
00000000
00000000
00000000
00000000
00000000
00000000
00000000
00000000
01000000
00000000
00000000
00000000
00000000
00000000
00000000
00000000
00000000
00000000
00000000
00000000
00000000
00000000
00000000
00000000
00000000
00000000
00000000
00000000
00000000
00000000
00000000
00000000
00000000
00000000
00000000
00000000
00000000
00000000
00000000
00000000
00000000
00000000
00000011
00000000
00000000
00000000
00000000
00000000
00000000
00000000
00000000
00000000
00000000
00000000
00000000
00000000
00000000
00000000
00000000
00000000
00000000
00000000
00000000
00000000
00000000
00000000
00000000
00000000
00000000
00000000
00000000
00000000
00000000
00000000
00000000
00000000
00000000
00000000
00000000
00000000
00000000
00000000
00000000
00000000
00000000
00000000
00000000
00000000
00000000
00000000
00000000
00000000
00000000
00000000
00000000
00000000
00000000
00000000
00000000
00000000
00000000
00000000
00000000
00000000
00000000
00000000
00000000
00000000
00000000
00000000
00000000
00000000
00000000
00000000
00000000
00000000
00000000
00000000
00000000
00000000
,
00000000
00000000
00010100
00000000
01000000
00000000
00000010
01000000
,
00000100
00000000
01000000
01000000
00000010
00000000
00000100
00100000
,
00000011
00000000
00000000
00000000
,
00000000
10100000
00000010
01000000
,
00000100
00000001
00000010
01000001
,
01000000
10000010
00000100
00010000
,
00100000
00000010
11000000
00010000
,
00000001
01000000
01000000
00000101
,
00000010
10000000
00010000
00100000
,
00000100
01000000
11000011
00000100
,
01000000
00000010
00010000
00100000
,
00010101
00000000
10000000
00000000
00010000
00000000
00000001
00010000
,
01000000
00000010
00100000
00000100
,
10100001
00000000
00000010
00000000
00000000
00000010
00000000
00000000
,
01000000
00000000
00000100
01000000
00000000
00000000
00000100
00000000
,
00000000
00100000
00000000
00000000
00000100
00000000
01000000
00000011
,
00000000
00000000
00100000
00000000
00000000
00100100
00000000
00000000
,
00000010
00000000
00000000
01000010
00000000
00000000
00000100
00000000
,
00000000
01000000
00000000
00000000
00000010
00000000
00000000
11000000
,
00000000
00000000
00000100
00100000
00000000
00000010
01000000
00000000
,
00000100
00100000
00000000
00000011
00000000
00000000
01000000
00000010
,
00100000
00000000
00000010
00000000
00100000
00000100
00000000
10100000
,
00000000
00000000
00000010
00000010
00000000
01000000
00000000
00000000
,
01000000
01000000
00000000
00000010
00000000
00000000
00010000
00000000
,
00000000
01000010
00000000
00000000
00000100
00000000
00000000
01000000
,
00000000
00000000
00000010
00000010
00000000
01000000
00000000
00000000
,
00100000
00100000
00000000
00000010
00000000
00000000
01000000
00000000
,
00000000
00010100
00000000
00000000
01000000
00000010
00000000
01000000
,
00000000
00000000
00000100
00000100
00000000
01000000
00000000
00000000
,
00100000
00100000
00000000
00000010
00000000
00000000
00100000
00000100
,
00000000
01000000
00000010
00000000
00100000
00000010
00000000
00100000
,
00000000
00000000
00000101
00000000
00000000
01000010
00000000
00000000
,
00000100
00100000
00000000
00000100
00000000
00000000
01000000
00000000
,
00000000
00100100
00000000
00000000
00000010
01000000
00000000
00000011
,
00000000
00000000
01000000
00000000
00000000
00000101
00000000
00000000
,
00100000
00000100
00000000
11000000
00000000
00000000
00000010
00000010
,
00000000
01000000
00000000
00000000
01000000
01000000
00000000
00000010
,
00000000
00000000
01000000
00000000
00000000
00000101
00000000
00000000
,
00000100
00000000
00000000
10100000
00000000
00000000
00000010
00000000
,
00000000
00100100
00000000
00000000
00100000
00000000
00000000
01000010
,
00000000
00000000
00000100
00000000
00000000
01000000
00000000
00000000
,
00100000
00000000
00000000
00000011
00000000
00000000
01000000
00000000
,
00000010
00100000
00000100
00000000
01000000
00000000
00000010
11000000
,
00000000
00000000
00000010
00000000
00000000
00000010
00000000
00000000
,
01000000
00000000
00000000
01000000
00000000
00000000
00000100
00000000
,
00000000
00010100
00000000
00000000
01000000
00000000
00000000
10000010
,
00000000
00000000
00000101
00000000
00000000
00000010
00000000
00000000
,
00010100
00000000
00000000
01000000
00000000
00000000
01000000
00000000
,
00000000
00000010
00000000
00000000
00010101
00000000
00000000
10110000
,
00000000
00000000
00000010
00000000
01000000
00000010
00000000
00000000
,
00100000
00000000
00000100
11000000
00000000
00000000
00000100
00000000
,
00000000
00000110
00000000
00000000
00100000
00000000
00000000
01100000
,
00000000
00000000
00000100
00000000
00000000
00100100
00000000
00000000
,
01000000
00000000
00000000
01000010
00000000
00000000
00100000
00000000
,
00000000
01010000
00000000
00000000
00000100
00000000
00000000
00010010
,
00000000
00000000
01000000
00000000
00000001
00000000
00000000
00010000
,
10000000
00010000
00000000
00000101
00000000
00000000
01000000
01000000
,
00000000
00000010
00000000
00000000
00000100
00100000
00000000
00000011
,
00000000
00000000
00100000
01000000
00000000
00100000
00000000
00000000
,
00000100
00000010
00000000
00000100
00000000
00000000
01000000
00000000
,
00000000
00000011
00000000
00000000
00000010
00000000
00000000
11000000
,
00000000
00000000
00000100
00100000
00000000
00000101
00000000
00000000
,
01000000
00000010
00000000
01000000
00000000
00000000
00000100
00000100
,
00000000
01000000
00000000
00000000
00100000
00000100
00000000
11000000
,
00000000
00000000
00000100
00000000
00000000
00001010
00000000
00000000
,
00100000
00000000
00000000
01001000
00000000
00000000
00000010
00000010
,
01000000
00000000
00000010
00000000
00100000
00000100
00000000
11000000
,
00000000
00000000
00000100
00000000
00000000
00100000
00000000
00000000
,
00000010
00000000
00000000
00000000
00000000
01000010
00000000
00000000
00000000
00000000
00000000
00000000
10110000
00000000
00000000
00000000
,
00000000
00000010
00000000
00000000
11000000
00000000
00000000
10000000
,
00010000
00000101
00000000
00000000
00000000
00000010
00000010
00000000
,
01000000
00000000
00000000
00000100
00000000
00000000
00000010
00000000
,
00000000
00100000
00000000
00000000
01000000
00000000
00000000
00000100
,
00000000
00000000
00010010
00000000
00000000
00100000
00000000
00000000
,
01010000
00000000
00000000
00000010
00000000
01000000
00000010
00000000
,
00000000
01000000
01000000
00000000
00000010
00000000
00000000
00000100
,
00000000
00100000
00000011
00000000
00000000
01000000
01000000
00000000
,
00000100
00000000
00000000
00000010
00000010
00000000
11000000
00000000
,
00000000
00000100
00000100
00000000
11000000
00000000
00000000
00100000
,
00000000
00000000
01000000
00000000
00000000
00000100
00000000
00000000
,
00000010
00000000
00000000
00000100
00000000
00100000
00000011
00000000
,
00000000
00100000
00000100
00000000
11000000
00000000
00000000
00000010
,
00000000
00000000
01000000
00000000
00000000
00000100
00000000
00000000
,
01000000
00000000
00000000
10100000
00000000
00000000
00000010
00000000
,
00000000
01000000
00000000
00000000
11000011
00000000
00000000
00000100
,
00000000
00000000
10000000
00000000
00000000
00000001
00000000
00000000
,
00010100
00000000
00000000
01000000
01000000
00000000
00000011
00000000
,
00000000
00000100
01000000
00000000
00000101
00000000
00000000
00100000
,
00000000
00000000
01110000
00000000
00000000
00000100
00000000
00000000
,
00010110
00000000
00000000
01000000
00000000
00000000
00000010
00000000
,
00000000
01000000
00000000
00000000
00000100
00000000
00000000
00100000
,
00000000
00000000
10100101
00000000
00000000
00000010
01000000
00000000
,
00000011
00000000
00000000
00100000
00000000
00000000
01000000
00000000
,
00000000
00000100
00000000
00000000
00000010
00000000
00000000
00100000
,
00000000
00000000
00000101
00000000
00000000
00000100
00000000
00000000
,
10100000
00000000
00000000
00000100
00000000
00000000
00000010
00000000
,
00000000
01000000
00000000
00000000
00100000
00000000
00000000
00000100
,
00000000
00000000
00100000
00000000
00000000
00000101
01000000
00000000
,
00000100
00000000
00000000
01000000
01000000
00000000
00000010
00000000
,
00000000
00000001
00010000
00000000
01000000
00000000
00000000
00010000
,
10000000
00000000
00000011
00000000
00000000
00100000
00000010
00000000
,
00100000
00000000
00000000
00000100
00000000
00000000
11000101
00000000
,
00000000
00100000
00000100
00000000
11000000
00000000
00000000
00000010
,
00000010
00000000
11000000
00000000
00000000
00100000
00000100
00000000
,
11000000
00000000
00000000
00010101
00000000
00000000
10110000
00000000
,
00000000
00000001
00010000
00000000
00000010
00000000
00000000
01000000
,
00000000
00000000
01000000
00000000
00000000
00000100
00000000
00000000
,
00000001
00000000
00000000
10000000
00000000
00000000
00010000
00000000
,
00000000
00000101
00000000
00000000
10100000
00000000
00000000
00000010
,
00000000
00000000
11000011
00000000
00000000
00100000
00100000
00000000
,
00000011
00000000
00000000
00100000
00000000
00000000
00100000
00000000
,
00000000
00000001
00000000
00000000
01000000
00000000
00000000
00000100
,
00000000
00000000
01000000
00000000
00000000
00000001
00000000
00000000
,
00000001
00000000
00000000
10000000
00000000
00000000
00010100
00000000
,
00000000
11000000
00000000
00000000
00000011
00000000
00000000
00000100
,
00000000
00000000
01000000
00000000
00000000
00000001
00000000
00000000
,
00010000
00000000
00000000
10000000
00010000
00000000
00000001
00000000
,
00000000
00000001
00010000
00000000
10000000
00000000
00000000
00000100
,
00000000
00000000
00000010
00000000
00000000
00100000
00000000
00000000
,
01000000
00000000
00000000
00000010
00000000
00000000
10100000
00000000
,
00000000
01000000
00000000
00000000
00000101
00000000
00000000
00100000
,
00000000
00000000
00100100
00000000
00000000
00000100
00100000
00000000
,
00000101
00000000
00000000
01000000
00000000
00000000
01000000
00000000
,
00000000
00000010
00000000
00000000
00000010
00000000
00000000
00100000
,
00000000
00000000
00000010
00000000
00000000
01000000
00000010
00000000
,
00100000
00000000
00000000
00000001
00000000
00000000
10000000
00000000
,
00000000
00010000
00000000
00000000
00000001
00000000
00000000
01000000
,
00000000
00000000
01000000
00000000
00000000
00000010
00000000
00000000
,
10100000
00000000
00000000
00000101
00000000
00000000
01000000
00000010
,
00000000
01000000
00000000
00000000
00000100
00000000
00000000
00100000
,
00000000
00000000
00000011
00000000
00000000
11000000
00000000
00000000
,
00010000
00000000
00000000
00010000
00000000
00000000
01000000
00000000
,
00000000
00000010
00000000
00000000
10110000
00000000
00000000
00010101
,
00000000
00000000
11000000
00000000
00000000
00000011
00000000
00000000
,
10100000
00000000
00000000
00000101
00000000
00000000
01000000
00000000
,
00000000
00000101
00000000
00000000
00000100
00000000
00000000
00000011
,
00000000
00000000
01000000
01000000
00000000
00000010
00000000
00000000
,
00100000
00000100
00000000
11000000
00000000
00000000
00000100
00000000
,
00000000
00010001
00000000
00000000
00100000
00000000
00000000
10010000
,
00000000
00000000
00000001
00000000
00000000
10000000
00000000
00000000
,
00010000
00000000
00000000
00010000
00000000
00000000
00000000
00000000
;
