#TITLE:[REMIX] Tell me + You And I + Keep Me Hanging Out;
#SUBTITLE:;
#ARTIST:潘瑋柏 & Babel J & DJ Goldfinger;
#TITLETRANSLIT:;
#SUBTITLETRANSLIT:;
#ARTISTTRANSLIT:Will Pan & Babel J & DJ Goldfinger;
#GENRE:;
#CREDIT:locuuraa;
#LYRICSPATH:;
#MUSIC:[REMIX] Tell me + You And I + Keep Me Hanging Out.ogg;
#OFFSET:0.880;
#SAMPLESTART:11.720;
#SAMPLELENGTH:12.000;
#SELECTABLE:YES;
#BPMS:0.000=139.840;
#STOPS:;
#KEYSOUNDS:;
#BANNER:[REMIX] Tell me + You And I + Keep Me Hanging Out.png;
#BACKGROUND:[REMIX] Tell me + You And I + Keep Me Hanging Out.png;
#CDTITLE:../CDTitles/4DSS.png;
#BGCHANGES:-14.700=[REMIX] Tell me + You And I + Keep Me Hanging Out.avi=1.000=0=0=1,
229.000=[REMIX] Tell me + You And I + Keep Me Hanging Out.png=1.000=0=0=1,
99999=-nosongbg-=1.000=0=0=0
;
#NOTES:
     ds3ddx-single:
     Remix:
     Challenge:
     6:
     :
00000000
00000000
00000000
00000000
,
00000000
00000000
00000000
00000000
,
00000000
00000000
11000000
00000000
,
00000000
00000000
00000000
00000000
00000001
00000000
00010000
10000000
,
00000000
00000000
00010000
00000000
,
10000000
00000000
10000001
00000000
,
00011000
00000000
00000001
00000000
,
10000000
00000000
00010100
00000000
,
01000000
00000000
00000010
00000010
,
01000000
00000010
10100000
00000000
,
00000011
00000000
01000000
01000000
,
00000100
01000000
00000100
11000011
,
00000100
00100100
01000000
00100000
,
00000010
00000100
00100000
10100100
,
00000010
11000010
00000100
00000011
,
00100000
11000000
00000100
00100000
,
00000100
00100000
01001000
00000000
00000010
00000000
01000000
00000000
,
00010100
01000000
01000000
00000010
,
00000010
00000000
01000000
01000000
00000010
00000000
00000001
00000000
,
00100000
10000000
00000100
01000000
,
10000010
00000010
00000010
00000000
01000001
00000000
00000100
00000000
,
00110100
00000000
01000000
00000010
11000000
00000000
00000100
00000000
,
01000000
00000000
00000100
00100000
00000011
00000000
11000000
00000000
,
00000100
00000100
00100000
00000010
,
01000000
00000000
01100000
00000000
00100000
01000000
00100000
00000000
,
00000100
00000010
00000100
00000000
01000000
01000000
00000010
01000000
,
00000100
10100000
00000100
00000100
,
11000000
00000011
01000000
00000100
,
00100000
01110000
00000100
00011110
,
01000000
00100000
00000100
00000010
,
00001000
10000000
00000100
00000001
,
00100000
10110000
00000100
00010001
,
01000000
00000000
00000100
00000000
00100000
00000010
00100000
00000000
,
00000010
00000010
00100000
10100000
,
00000100
00000101
01000000
00000010
,
00100000
00000100
10100000
00000000
00000100
00000000
00000010
00000000
,
01000000
01000000
00000101
00000000
00100000
00000000
01000000
00000000
,
00000100
00000010
01000000
01000000
,
00000100
00100000
00000010
00000000
00000010
00000000
00000011
00000000
,
01000000
11000000
00000100
00100000
,
00000100
00100000
00000011
00000000
00100000
00100000
00000100
00000000
,
01000000
00000010
00110000
00000000
00000100
00000000
00001010
00000000
,
00100000
01001000
00000001
00100100
,
00100000
01000000
00000010
01000000
,
00000100
00000010
00010100
00000000
10000000
10000000
00000100
00000000
,
00100000
00010000
00000010
00000000
10000000
00000000
00000100
00000000
,
01000000
01000010
00000100
01000000
,
00000011
00000000
01000000
00000000
00000100
00000100
01000000
00000010
,
01000000
10000101
00100000
01011000
,
00000100
00011010
01000000
00000010
,
00010000
10100000
00000010
00000000
01000000
00000000
00000100
00000000
,
00100000
00000011
11000000
00000100
,
00000100
00000000
00100000
00000000
11100000
00000000
00000100
00000010
,
00000100
00100000
01000000
00000001
,
11000001
00000000
01000000
00000000
00000101
00000000
00010000
10000000
,
00010000
00100000
01000000
00000100
,
11000000
00000000
00000001
00000100
10100000
00000000
00000010
00000000
,
00000010
00100000
01010000
00000010
,
11000000
00000000
00000100
00000100
,
00100000
00000101
01000000
01000000
,
00000010
00000000
11000011
00000000
00000100
00100000
00000011
00000000
,
00100000
01000000
00000010
00000010
,
00000100
00100000
00000010
00000000
10000000
10000000
00000010
00000000
,
00010000
00010000
01000000
00000000
00000010
00000000
00000100
00000000
,
00100000
00000000
00000100
00100000
00000101
00000000
01000000
00000000
,
00000101
00000010
10100000
00000100
,
00100000
00110100
10000001
00000100
,
00000010
01000000
00000011
00000010
,
01000000
00000100
00110000
00000010
,
11000000
00000011
00000100
00100000
,
00000010
01000000
01000000
00000101
,
00100000
00000011
01000000
00000100
,
10100000
00000100
11000000
00000100
,
00000110
00100000
01100000
00000010
,
00000010
01000000
00010101
00000100
,
00100000
00000100
10100000
00000010
,
11000000
00010100
01000000
00000010
,
00000100
00000100
00100000
00100000
,
00000010
00000110
01000000
01100000
,
00000010
00100000
00010101
00100000
,
10110000
00000000
00000100
00000000
01000000
00000000
00000010
01000000
,
11000011
00000100
00110000
10000000
,
00100101
00000000
00000000
00000000
01000000
00000010
00000000
00000000
,
00000100
00000101
01000000
00000011
,
01000000
00000010
11000000
00010100
,
01000000
00000010
10100000
10100000
,
00000100
00000011
00100000
01000000
,
00000100
00100000
00000011
01000000
,
10000010
00000100
00100001
00000100
,
00110100
00000000
01000000
00000010
00100000
00000000
00000100
00000000
,
00100000
00000000
00000010
01000000
00000011
00000000
00100000
00000000
,
00000100
00100000
00000100
01000000
,
01000000
00000101
00010100
00100000
,
00000011
11000000
00010000
00010000
,
00100000
00100000
00000100
01000100
,
00100000
00000000
00100010
00000000
00000100
00000010
00000100
00000000
,
11000000
00000010
00000010
01000000
,
00000100
00010000
10000001
10100000
,
00010000
00000100
00001010
01000000
,
00000001
00000001
01000000
00010000
,
00100000
00000101
00100000
01001000
,
00000100
00100000
10100101
00000100
,
00000100
01000000
00000010
00010000
,
00100000
00000001
11000000
01000000
,
00000010
00000100
10110000
00010101
,
01000000
10000000
00000010
00000001
,
00010000
00000000
10100000
00000000
00000100
00000010
00010100
00000000
,
00100000
00000000
00000010
00000000
01000000
00000010
00110000
00000000
,
00000010
00000010
10000000
00010000
,
00000011
01000000
00001000
00011000
,
10000000
00010000
00000001
00000000
,
00000000
00000000
00000011
00000000
,
11000000
00000000
00010100
01000000
,
00000010
00000000
01000000
00000000
,
01000000
00000100
00100000
00010100
,
01000000
00000010
00000010
11000000
,
01000000
00000100
00000101
00100000
,
10100000
01000000
00000010
00100000
,
00000011
01000000
00010100
00100100
,
00100100
00000000
01000000
00000010
01000000
00000000
00000100
00000000
,
10100000
00100000
00000101
01000000
,
00000001
00000010
10000000
00010000
,
00010000
10000000
00000010
01000000
,
00000100
00100000
00000011
00000000
00100000
00000000
00000010
00000000
,
01000000
00000101
00010100
00000011
,
00100000
00100000
00000010
01000010
,
00000100
00100101
00100000
01111000
,
00000010
01000000
00010100
00000101
,
01000000
01000000
00000010
00000000
01000000
00000000
00000100
00000000
,
00100000
00000100
00100000
00000100
01000000
00000000
00000011
00000000
,
00100000
00000011
00000010
11000000
,
00010000
00000001
01000000
00010000
,
00000010
11000000
00000100
00000100
,
00100000
00000010
01000000
00000100
00100000
00000000
00000011
00000000
,
01000000
00000100
00010000
10000000
,
00000010
11000010
00000100
00000011
,
01000000
00100100
01000010
01000001
,
00100010
00100000
00000010
00000011
,
00100000
00000000
00000100
00000000
01000000
00000010
01000000
00000010
,
00100000
00000101
11000000
01000000
,
00000010
00110000
10100000
00010000
,
00000001
00000001
10000000
00010000
,
00000101
00000010
11000000
01000000
,
00000100
00100101
01000000
11000010
,
00000100
00110100
00100000
01100000
,
00000100
00000110
01000000
00000010
,
00100100
01100000
01000010
00000110
,
00100100
01000010
00010000
00000000
;
