#TITLE:[REMIX] Strange Lies + My Lover + Because of You;
#SUBTITLE:;
#ARTIST:蔡炸;
#TITLETRANSLIT:;
#SUBTITLETRANSLIT:;
#ARTISTTRANSLIT:Cai Zha;
#GENRE:;
#CREDIT:locuuraa;
#LYRICSPATH:;
#MUSIC:[REMIX] Strange Lies + My Lover + Because of You.ogg;
#OFFSET:-0.220;
#SAMPLESTART:11.980;
#SAMPLELENGTH:12.000;
#SELECTABLE:YES;
#BPMS:0.000=124.120,225.000=126.000,413.000=100.000;
#STOPS:;
#KEYSOUNDS:;
#BANNER:[REMIX] Strange Lies + My Lover + Because of You.png;
#BACKGROUND:[REMIX] Strange Lies + My Lover + Because of You.png;
#CDTITLE:../CDTitles/4DSS.png;
#BGCHANGES:-14.700=[REMIX] Strange Lies + My Lover + Because of You.avi=1.000=0=0=1,
229.000=[REMIX] Strange Lies + My Lover + Because of You.png=1.000=0=0=1,
99999=-nosongbg-=1.000=0=0=0
;
#NOTES:
     ds3ddx-single:
     Remix:
     Challenge:
     5:
     :
00000000
00000000
00000000
00000000
,
00000000
00000000
00000000
00000000
,
00000000
00000000
00000000
00000000
,
00000000
00000000
00000000
00000000
,
00010000
00000000
00000000
00000000
,
10000000
00000000
00000000
00000000
,
00000001
00000000
00000000
00000000
,
10100101
00000000
00000000
00000000
,
01000000
00000100
00100000
00000010
,
00100000
00100000
00000100
01000000
,
00000100
00000100
00100000
00000010
,
00100000
00000100
00100000
01000000
,
00000100
00100000
00000100
00000010
,
01000000
01000000
00000100
00100000
,
10000001
00000000
00010000
00000000
,
10000001
00000000
00001000
00000000
,
00100000
00000101
00000100
10100000
,
01000000
00000010
00000100
00010000
,
01000000
00000011
00000010
11000000
,
00100000
00000100
00000010
00010000
,
00100000
01100000
00000100
00100100
,
00000010
00000010
01000000
00010000
,
00000010
00110000
00000100
01010000
,
00000100
00000010
01000000
00100000
,
00000100
00100001
00100000
10000100
,
00010000
00010000
10000000
00000001
,
00100000
00100000
00000100
00000100
,
00100000
01000000
00000101
10100000
,
00100000
10000000
00000100
00000001
,
00100000
00000100
01000000
00000010
,
00010000
10100000
10100000
00010100
,
00000101
10000010
01000001
00010000
,
10000001
10000001
01000000
01000000
,
00000001
10000000
00000010
00000010
,
00100000
01100000
00000100
00000110
,
00100000
00000100
00100000
00000011
,
00100000
00100000
00000100
00000100
,
00100000
00000100
00000010
01000000
,
00010100
00000011
11000000
00110000
,
10000001
00011000
10000001
00011000
,
00100000
10000100
00000100
00100001
,
01000000
00010000
00000010
00001000
,
01000000
00000010
00000100
00100000
,
10000000
10000000
00000001
00000001
,
00100000
00100100
00000010
01000010
,
00100000
00100000
00000100
11000000
,
01000010
01000010
00100100
00100100
,
11000000
00000011
00110000
00000101
,
00010000
10000000
00000000
00000000
00000100
00000000
00000100
00000000
,
00010000
00000001
00000000
00000000
01000000
00000000
01000000
00000000
,
00010000
10000000
00000000
00000000
00100000
00000000
00100000
00000000
,
00010000
00000001
00000000
00000000
00000010
00000000
00000010
00000000
,
00100000
01100000
00000100
00000110
,
00100000
01000000
00000010
00000100
,
10000001
00000000
00000000
00010000
,
10000001
00000000
00000000
00001000
,
10100000
00000000
00000000
00000100
00100000
00000100
00100000
00000000
01000000
00000010
01000000
00000010
,
00000000
00000000
00000000
00011000
00000000
00000000
00000000
00000000
00000000
00100000
00100000
00100000
,
00000001
01000000
00000000
00000010
,
00000000
00100000
00000000
00000100
,
00000000
00100000
00000000
00000010
,
00000000
00000010
00000000
01000000
,
00000000
00100000
00000000
00000100
,
00000000
00000010
00000000
00100000
,
00000000
00100000
00000000
01000000
,
00000000
00000100
00000000
00100000
,
00000000
00100000
00000000
00000010
,
00000000
00000010
00000000
00000100
,
00000000
01000000
00000000
00100000
,
00000000
00000010
00000000
00000100
,
00000000
01000000
00000000
00100000
,
00000000
00000010
00000000
00000100
,
00000000
00100000
00000000
00000100
,
00000000
00000010
00000000
00100000
,
00000000
10000001
00000000
00000000
,
10000000
00010100
00000000
00000000
,
10000000
00000000
00000101
10000000
00000001
10000000
00011000
00000000
,
00000000
00000100
00100000
01000000
,
01000000
00010010
10100000
11000000
,
00010000
00000010
01000000
00100000
,
00000100
00100000
00100000
00010000
,
00000001
01000000
00100000
00000010
,
00000100
01000000
01000000
00100001
,
00000000
00000100
00000000
01000000
,
00000000
00100000
00000000
00000100
,
00000000
00000010
00000000
01000000
,
00000000
00100000
00000000
00000100
,
00000000
01000000
00000000
00100000
,
00000000
00000100
00000000
00100000
,
00000000
01000000
00000000
00000100
,
00000000
00000000
00110000
00000000
00000000
00000000
00010000
10000000
,
00000000
00000100
00000000
01000000
,
00000000
00000010
00000000
00000100
,
00000000
01000000
00000000
00100000
,
00000000
00000010
00000000
00000100
,
00000000
01000001
00000000
00100000
,
00000000
10000100
00000000
00100000
,
00000000
01000000
00000000
00100000
,
00000100
00000010
01000000
00100000
,
00000100
01000000
00000000
00000101
,
00000000
00000010
00000000
10100000
,
00000000
01000000
00000000
00000101
,
00000000
00000010
00000000
00110000
,
00000000
10000001
00000100
00100000
,
00000100
01000000
00000100
00100000
,
00000010
00010000
01000000
00100000
,
00000100
00010000
01000000
00100000
,
00000010
00000100
10100000
00000100
,
00000101
01000000
00110000
00000010
,
00010100
00100000
00100001
00000100
,
10000100
00000000
00100000
00000000
01010000
00000000
00000001
10000000
,
00000001
10000000
01000000
00000000
11000000
00000000
00000010
00000000
,
00000011
00100000
00000101
00000100
,
00110000
00000100
11000000
00000010
,
10100000
00000000
00000100
00000000
00000101
00000000
10000000
00000001
,
10000000
00000001
00010000
00000000
00000101
00000000
00100000
00000000
,
11000000
00000100
00110000
00100000
,
01100000
00000100
00000110
00100000
,
00100100
00000000
01000000
00000000
01000010
00000000
00010000
10000000
,
00000001
00010000
10000000
00000000
00000100
00000000
00100000
00000000
,
00000100
01000010
00100000
00100000
,
00000100
00000010
01000000
00100000
,
00000100
00000000
00000010
00000000
00100000
00000000
00100000
00000100
,
00000010
01000000
00010000
00000000
10100000
00000000
00000100
00000000
,
00010001
00100000
01100000
00000100
,
00000110
00100000
00000100
00000010
,
01000000
00000000
00100000
00000000
00000100
00000000
00100000
01000000
,
00000010
00000100
10100000
00000000
00000000
00000000
00000000
00000000
;
