#TITLE:[REMIX] R&B + HipHop + HOUSE + BREAKS;
#SUBTITLE:;
#ARTIST:DJ冰河时代;
#TITLETRANSLIT:;
#SUBTITLETRANSLIT:;
#ARTISTTRANSLIT:;
#GENRE:;
#CREDIT:locuuraa;
#LYRICSPATH:;
#MUSIC:[REMIX] R&B + HipHop + HOUSE + BREAKS.ogg;
#OFFSET:0.400;
#SAMPLESTART:11.900;
#SAMPLELENGTH:12.000;
#SELECTABLE:YES;
#BPMS:0.000=106.000,167.500=158.800,168.000=158.800,363.500=200.000,364.000=127.370,445.000=140.000,446.000=145.000,447.000=128.000,504.000=127.370;
#STOPS:;
#KEYSOUNDS:;
#BANNER:[REMIX] R&B + HipHop + HOUSE + BREAKS.png;
#BACKGROUND:[REMIX] R&B + HipHop + HOUSE + BREAKS.png;
#CDTITLE:../CDTitles/4DSS.png;
#BGCHANGES:-14.700=[REMIX] R&B + HipHop + HOUSE + BREAKS.avi=1.000=0=0=1,
229.000=[REMIX] R&B + HipHop + HOUSE + BREAKS.png=1.000=0=0=1,
99999=-nosongbg-=1.000=0=0=0
;
#NOTES:
     ds3ddx-single:
     Remix:
     Challenge:
     4:
     :
00000000
00000000
00000000
00000000
,
00000000
00000000
00000000
00000000
,
10000001
00000000
00100000
00000000
00000100
00000000
00100000
00100000
,
00000001
00000000
00000100
00000000
00100000
00000000
00000100
00000100
,
10000000
00000000
00100000
00000000
00000010
00000000
00000100
00000100
,
01000000
00000000
00000100
00000000
01000000
00000000
00100000
00100000
,
00000010
00000000
01000000
00000000
00000010
00000000
01000000
01000000
,
00000100
00000000
00100000
00000000
00000100
00000000
00100000
00100000
,
00000010
00000000
00100000
00000000
01000000
00000000
00000010
00000010
,
00000100
00000000
00000100
00000000
00000010
00000000
01000000
01000000
,
00100000
00000000
00000100
00000000
00000010
00000000
01000000
01000000
,
00100000
00000000
00100000
00000000
01000000
00000000
00000010
00000010
,
00000100
00000000
00100000
00000000
00010000
00000000
00000100
00000100
,
10000000
00000000
00000100
00000000
00010000
00000000
00100000
00100000
,
00000001
00000000
00100000
00000000
10000101
00000000
01000000
01000000
,
00000100
00000000
00000010
00000000
11000001
00000000
00000100
00000100
,
00100000
01010000
00000000
00010100
,
00000000
00000000
00100000
00000000
00000010
00000000
01000000
01000000
,
00010000
00010100
00000000
10100000
,
00000000
00000000
00000010
00000000
00000100
00000000
01000000
01000000
,
00100000
10000100
00000000
00100001
,
00000000
00000000
00000100
00000000
00000010
00000000
00100000
00100000
,
01000000
00000000
00010000
00000001
00000000
00000000
00010000
10000000
,
00000000
00000000
10000000
00000000
00000001
00000000
00100000
00100000
,
00000010
00100000
00000010
01000000
,
00000100
00000100
01000000
00000010
,
00100000
00000100
00000100
00100000
,
01100000
01000000
01000000
00000010
,
00000110
00010000
00000000
00000001
,
00000000
00000000
00000010
00000000
01000000
00000000
00000010
00000010
,
00100000
00010000
00000000
10000000
,
00000000
00000000
01000000
00000000
00000010
00000000
01000000
01000000
,
00000100
00000001
00000000
00110000
,
00000000
00000000
00100000
00000000
01000000
00000000
00000100
00000100
,
00100000
10000000
00000000
00010100
,
00000000
00000000
00000100
00000000
00000010
00000000
00100000
00100000
,
00000100
00100000
01000000
00000010
,
00000100
00100000
01000000
00000100
,
00000000
00000010
01000000
00100000
,
00000100
00000010
00000100
00100000
,
00000000
01000000
00000100
00100000
,
00000010
00100000
01000000
00010100
,
00000000
00000000
00100000
00000000
,
00000000
00000000
00000100
00000100
00000000
01000000
00000000
00000000
,
00000100
00000000
00000000
00000000
00000000
00000000
00100000
00100000
,
00000000
00000010
00000000
00000000
00110000
00000000
00000000
00000000
,
00000000
00000000
01000000
01000000
00000000
00000010
00000000
00000000
,
11000000
00000000
00000000
00000000
00000000
00000000
00100000
00000100
,
00000000
01000000
00000000
00000000
00010100
00000000
00000000
00000000
,
00000000
00000000
00000100
00000010
00000000
01010000
00000000
00000000
,
11000000
00000000
00000000
00000000
00000000
00000000
00100000
00100000
,
00000000
00010100
00000000
00000000
10100000
00000000
00000000
00000000
,
00000000
00000000
00000100
00000100
00000000
01010000
00000000
00000000
,
00000011
00000000
00000000
00000000
00000000
00000000
00000100
00000010
,
00000000
01000000
00000000
00000000
00000101
00000000
00000000
01000000
,
00000000
00000000
00000010
00000000
00000000
00110000
00000000
00000000
,
00000001
00000000
00000000
00010100
00000000
00000000
01000000
00000000
,
00000000
00000100
00000000
00000000
00000010
00000000
00000000
01000000
,
00000000
00000000
00100000
00000000
00000000
00010100
00000000
00000000
,
00010010
00000000
00000000
00000100
00000000
00000000
00000010
00000000
,
00000000
11000000
00000000
00000000
00100000
00000000
00000000
00000100
,
00000000
00000000
00100000
00000000
00000000
00000011
00000000
00000000
,
00100000
00000000
00000000
00000101
00000000
00000000
00100000
00000000
,
00000000
01000000
00000000
00000000
00000010
00000000
00000000
00100000
,
00000000
00000000
00000100
00000000
00000000
00000010
00000000
00000000
,
00100000
00000000
00000000
00000010
00000000
00000000
00000100
00000000
,
00000000
00100000
00000000
00000000
01000000
00000000
00000000
00000100
,
00000000
00000000
00100000
00000000
00000000
00100000
00000000
00000000
,
00000100
00000000
00000000
00000010
00000000
00000000
00000100
00000000
,
00000000
00100000
00000000
00000000
00000100
00000000
00000000
00000010
,
00000000
00000000
00100000
00000000
00000000
00000100
00000000
00000000
,
00100000
00000000
00000000
01000000
00000000
00000000
00000100
00000000
,
00000000
00100000
00000000
00000000
01000000
00000000
00000000
00000010
,
00000000
00000000
00000100
00000000
00000000
00100000
00000000
00000000
,
00100000
00000000
00000000
00000010
00000000
00000000
00000100
00000000
,
00000000
00000100
00000000
00000000
01000000
00000000
00000000
00000100
,
00000000
00000000
00000010
00000000
00000000
00100000
00000000
00000000
,
01000000
00000000
00000000
00000100
00000000
00000000
00100000
00000000
,
00000000
00000010
00000000
00000000
00000100
00000000
00000000
00100000
,
00000000
00000000
01000000
00000000
00000000
00000100
00000000
00000000
,
00000010
00000000
00000000
01000000
00000000
00000000
00000100
00000000
,
00000000
00100000
00000000
00000000
01000000
00000000
00000000
00000010
,
00000000
00000000
00000100
00000000
00000000
00100000
00000000
00000000
,
00100000
00000000
00000000
00000100
00000000
00000000
01000000
00000000
,
00000000
00000010
00000000
00000000
11000000
00000000
00000000
00000000
,
00000000
00000000
00000000
00000000
,
00000000
00000000
00000000
00000000
,
00000000
00000000
00000000
00000000
,
00000000
00000000
00000000
00000000
,
00000000
00000000
00000000
00000000
,
00000000
00000000
00000000
00000000
,
00000000
00100000
00000101
00000100
,
10100000
00100000
11000000
01000000
,
00000011
00100000
00010100
00100000
,
10100000
00000100
00000101
00000100
,
01010000
00000100
00000011
00100000
,
11000000
01000000
00110000
00000100
,
00000011
00000100
00110000
00000100
,
00000011
00100000
11000000
00000100
,
00010100
00100000
00000101
00100000
,
00110000
00000100
10100000
00000100
,
00000101
00100000
00000100
00000100
,
00100000
10000001
00000000
00000000
,
00000000
00000000
00000000
00000000
,
00000000
00000000
00000000
00000000
,
00000000
00000000
00000000
00000000
,
00000000
00000000
00000000
00000000
,
00000000
00100000
01100000
01000000
,
01000010
00000100
00000110
00000010
,
01000010
00100000
00110000
00000100
,
00010010
10000000
10000000
10000000
00010000
00000000
00000100
00000000
,
10000001
00000000
00000000
00000000
,
00010000
00100000
00100000
00000100
,
00000100
01000000
01000000
00000010
,
00000010
00100000
00000010
00000100
,
01000000
00100000
00000100
01000000
,
00000010
01000000
01000000
00000010
,
00000010
00100000
00100000
00000100
,
00000100
01000000
00000100
00100000
,
00000010
00100000
00000100
10000001
,
00000000
00100000
00000101
00000100
,
10100000
00100000
11000000
00000100
,
00000011
00000010
00110000
00000100
,
11000000
00000100
00000101
00100000
,
10100000
00000010
00000000
00110000
,
00000000
00000100
00000000
11000000
,
00000000
00100000
00000000
00000101
,
00000000
00000100
00000000
00000011
,
00000000
00100000
00000000
00010100
,
00000000
01000000
00000000
00010010
,
00000000
00100000
00000000
10100000
,
00000000
00000100
00000000
00000101
,
00000000
00100000
00000000
01010000
,
00000000
00000000
01000000
00000000
00000000
00000000
00000011
10000000
,
00010000
00010000
01000000
10000000
00000001
00000001
00011000
00000000
,
00000000
00000000
00000000
00000000
,
00000000
00000000
00000000
00000000
,
00000100
00000000
00100000
00000000
,
00000100
00000000
01000000
00000000
,
00100000
00000000
00000010
00000000
,
00000100
00000000
00100000
00000000
,
01000000
00000000
00000100
00000000
,
00000010
00000000
00100000
00000000
,
00000100
00000000
00000011
00000000
;
