#TITLE:[REMIX] Popping + HipHop;
#SUBTITLE:;
#ARTIST:DJ冰河时代;
#TITLETRANSLIT:;
#SUBTITLETRANSLIT:;
#ARTISTTRANSLIT:;
#GENRE:;
#CREDIT:locuuraa;
#LYRICSPATH:;
#MUSIC:[REMIX] Popping + HipHop.ogg;
#OFFSET:0.680;
#SAMPLESTART:11.880;
#SAMPLELENGTH:12.000;
#SELECTABLE:YES;
#BPMS:0.000=141.240,26.000=170.000,26.500=141.240,121.000=170.000,122.000=141.240,133.500=170.000,134.000=141.240,146.000=143.000,218.000=147.000,392.000=150.400,512.500=152.810;
#STOPS:;
#KEYSOUNDS:;
#BANNER:[REMIX] Popping + HipHop.png;
#BACKGROUND:[REMIX] Popping + HipHop.png;
#CDTITLE:../CDTitles/4DSS.png;
#BGCHANGES:-14.700=[REMIX] Popping + HipHop.avi=1.000=0=0=1,
229.000=[REMIX] Popping + HipHop.png=1.000=0=0=1,
99999=-nosongbg-=1.000=0=0=0
;
#NOTES:
     ds3ddx-single:
     Remix:
     Challenge:
     4:
     :
00000000
00000000
00000000
01000000
,
00000000
00000010
00000000
01000000
00000000
00100000
00000000
01000000
,
00000000
00000000
00000010
00000000
00000000
00100000
00000000
00000100
,
00000000
00100000
00000000
00000100
00000000
00000000
00100000
00000000
,
00000000
01000000
00000000
00000100
00000000
00000100
00000000
10000000
,
00000000
00000000
00000100
00000000
00000000
00000010
00000000
00100000
,
00000000
00100000
00000000
00000001
00000000
00000000
00100100
00000000
,
00000000
10000000
00000000
00000000
00000100
00000000
00000000
10000000
,
00000000
00000000
00000100
00000000
00000000
00100000
00000000
00000000
,
00000100
00000000
00000000
01000000
00000000
00000000
00100000
00000000
,
00000000
00000010
00000000
00000000
00000100
00000000
00000000
00100000
,
00000000
00000000
01000000
00000000
00000000
00000010
00000000
00000000
,
00000100
00000000
00000000
00100000
00000000
00000000
00000100
00000000
,
00000000
00100100
00000000
00000000
00000100
00000000
00000000
00000011
,
00000000
00000000
01000010
00000000
00000000
10100000
00000000
00000000
,
00000100
00000000
00000000
10000010
00000000
00000000
01000010
00000000
,
00000000
00000001
00000000
00000000
00100000
00000000
00000000
00100101
,
00000000
00000000
00000100
00000000
00000000
00000011
00000000
00000000
,
01000000
00000000
00000000
00110000
00000000
00000000
00000100
00000000
,
00000000
00000010
00000000
00000000
00100000
00000000
00000000
01000000
,
00000000
00000000
00000100
00000000
00000000
00000001
00000000
00000000
,
01000000
00000000
00000000
10000000
00000000
00000000
00100000
00000000
,
00000000
00000100
00000000
00000000
00000010
00000000
00000000
01000000
,
00000000
00000000
00100000
10000000
00000000
00000100
00000001
00010000
,
00000000
00000000
10100000
00000000
00000000
00000100
00000000
00000100
,
00100001
00000000
00000000
00000100
00000000
00000100
00010000
00000000
,
00000000
00100000
10000000
00000000
00000100
00000001
00000000
00010000
,
10000000
00000001
00000000
00000000
00000000
00100000
00000000
00100000
,
10000100
00000000
00000000
00100000
00000000
00100000
00010000
00000000
,
00000000
00000100
00000001
00000000
00100000
10000000
00000000
00010000
,
00000001
10000000
00000000
00000000
00000000
00100000
00000000
00000000
,
00000101
00000000
00000000
00100000
00000000
00000000
00100001
00000000
,
00000000
01000000
00000000
00000000
11000000
00000000
00000000
00000100
,
00000000
00000000
00000011
00000000
00000000
01000000
00000000
00000000
,
00110000
00000000
00000000
00000010
00000000
00000000
01000000
00000000
,
00000000
00000100
00000000
00000000
00100000
00000000
00000000
00000100
,
00000000
00000000
00100000
00000000
00000000
01000000
00000000
00000000
,
00000010
00000000
00000000
01000000
00000000
00000000
00000001
00000000
,
00000000
00100000
00000000
00000000
00000100
00000000
00000000
00000100
,
00000000
00000000
00100000
00000000
00000000
01000000
00000000
00000000
,
00010000
00000000
00000000
00000010
00000000
00000000
00000100
00000000
,
00000000
00010000
00000000
00000000
01000000
00000000
00000000
01000000
,
00000000
00000000
00000010
00000000
00000000
00100000
00000100
01000000
,
00000000
00000000
00000100
00000000
00000000
10000000
00000000
00000000
,
00000100
00000000
00000000
00000000
00000001
00000000
00000000
00100000
,
00000000
00000000
00000100
00000000
00000000
00000010
00000000
00000000
,
00010000
00000000
00000000
01000000
00000000
00000000
00000010
00000000
,
00000000
00000100
00000000
00000000
00100000
00000000
00000000
00010000
,
00000000
00000000
00000010
00000000
00000000
01000000
00000000
00000000
,
00000100
00000000
00000000
00100000
00000000
00000000
00000010
00000000
,
00000000
00100000
00000000
00000000
00000100
00000000
00000000
00100000
,
00000000
00000000
01000000
00000000
00000000
00000100
00000000
00000000
,
00000010
00000000
00000000
00100000
00000000
00000000
01000000
00000000
,
00000000
00000010
00000000
00000000
00000100
00000000
00000000
01000000
,
00000000
00000000
00100000
00000000
00000000
00000010
00000000
00000000
,
01000000
00000000
00000000
00100000
00000000
00000000
00000100
00000000
,
00000000
00100000
00000000
00000000
00100000
00000000
00000000
00000100
,
00000000
00000000
00000100
00000000
00000000
01000000
00000000
00000000
,
01000000
00000000
00000000
00100000
00000000
00000000
00000100
00000000
,
00000000
00000010
00000000
00000000
00100000
00000000
00000000
00100000
,
00000000
00000000
00000100
00000000
00000000
01000000
00000000
00000000
,
00100000
00000000
00000000
00000100
00000000
00000000
00000010
00000000
,
00000000
00100000
00000000
00000000
00000100
00000000
00000000
01000000
,
00000000
00000000
00100000
00000000
00000000
00000100
00000000
00000000
,
00000010
00000000
00000000
00100000
00000000
00000000
00000100
00000000
,
00000000
00100000
00000000
00000000
01000000
00000000
00000000
00000100
,
00000000
00000000
00100000
00000000
00000000
00010000
00000000
00000000
,
01000000
00000000
00000000
10000000
00000000
00000000
00000010
00000000
,
00000000
00000001
00000000
00000000
00010000
00000000
00000000
01000000
,
00000000
00000000
00000100
00000000
00000000
00011000
00000000
00000000
,
00000001
00000000
00000000
00100000
00000000
00000000
00000100
00000000
,
00000000
00000010
00000000
00000000
00100000
00000000
00000000
00100000
,
00000000
00000000
00000100
00000000
00000000
00100001
00000000
00000000
,
00000000
00000000
00000000
00000000
,
01100000
00000000
00000000
00000100
00000000
00000000
00000010
00000000
,
00000000
00100000
00000000
00000000
01000000
00000000
00000000
00000100
,
00000000
00000000
00000010
00000000
00000000
01000000
00000000
00000000
,
00100000
00000000
00000000
00000100
00000000
00000000
00000100
00000000
,
00000000
00100000
00000000
00000000
01000000
00000000
00000000
00000110
,
00000000
00000000
00100000
00000000
00000000
00000100
00000000
00000000
,
00000100
00000000
00000000
00000010
00000000
00000000
01000000
00000000
,
00000000
00100000
00000000
00000000
00100000
00000000
00000000
00000100
,
00000000
00000000
00010000
00000000
00000000
01000000
00000000
00000000
,
00010000
00000000
00000000
00000010
00000000
00000000
00000001
00000000
,
00000000
01000000
00000000
00000000
00100000
10000000
00000000
00000100
,
00000001
00000000
01000000
00000000
01000000
00000100
00000000
00000000
,
10000010
00000000
00000000
00000000
,
00000000
00000000
00000000
00000000
,
00000000
00000000
00000000
00000000
,
00000000
00000000
00000000
00000000
,
00000000
00000000
00000000
00000000
,
00000000
00000000
00000000
00100000
,
00000000
01000000
00000000
00000000
01000000
00000000
00000000
00100000
,
00000000
00000000
00000010
00000000
00000000
00000100
00000000
00000000
,
00000100
00000000
00000000
00100000
00000000
00000000
01000000
00000000
,
00000000
01000000
00000000
00000000
00010000
00000000
00000000
00000100
,
00000000
00000000
01000000
00000000
00000000
00100000
00000000
00000000
,
00000100
00000000
00000000
00000101
00000000
00000000
00000000
00000000
,
01000000
00000000
00000000
00000100
00000000
00000000
00100000
00000000
,
00000000
01000000
00000000
00000000
00000100
00000000
00000000
00000010
,
00000000
00000000
10000000
00000000
00000000
00100000
00000000
00000000
,
01000000
00000000
00000000
00000100
00000000
00000000
00000001
00000000
,
00000000
00000100
00000000
00000000
00000010
00000000
00000000
01000000
,
00000000
00000000
00100000
00000000
00000000
01000000
00000000
00000000
,
00100000
00000000
00000000
00000100
00000000
00000000
00010000
00000000
,
00000000
00100000
00000000
00000000
00000010
00000000
00000000
00000100
,
00000000
00000000
00100000
00000000
00000000
01000000
00000000
00000000
,
00000010
00000000
00000000
01010000
00000000
00000000
00000000
00000000
,
00000000
00000000
00000000
00000000
,
00000000
00000000
00000000
00000000
,
00000000
00000000
00000000
00000000
00100100
00000000
00000000
00000010
,
00000000
00000000
01000000
00000000
01000000
00000001
00000000
00000000
,
10000000
10000000
00000000
00000100
00000001
00000000
01000000
00000000
,
01000000
00000000
00000000
00000100
00000000
00000000
00000010
00000000
,
00000000
01000000
00000000
00000000
00100000
00000000
00000000
00000100
,
00000000
00000001
00000000
10000000
,
00000000
01000000
01000000
00000000
00000001
00000000
00000000
00000010
,
00000000
00000000
00100000
00000000
00000000
01000000
00000000
00000000
,
00000100
00000000
00000000
00000010
00000000
00000000
00100000
00000000
,
00000000
00100000
00000000
00000000
01000000
00000000
00000000
00000010
,
00000000
00000000
00000010
00000000
00000000
00000100
00000000
00000000
,
10000000
00000000
00000000
00010000
00000000
00000000
10000000
00000000
,
00000000
00010000
00000000
00000000
00000010
00000000
00000000
00000100
,
00000000
00000000
00100000
00000000
00000000
00010000
00000000
00000000
,
01000000
00000000
00000000
00010000
00000000
00000000
00000010
00000000
,
00000000
00010000
00000000
00000000
01000000
00000000
00000000
00000100
,
00000000
00000000
00000010
00000000
00000000
01000000
00000000
00000000
,
00100000
00000000
00000000
00000010
00000000
00000000
00000100
00000000
,
00000000
01000000
00000000
00000000
00100000
00000000
00000000
00000010
,
00000000
00000000
00000100
00000000
00000000
01000000
00000000
00000000
,
00000100
00000000
00000000
00100000
00000000
00000000
01000000
00000000
,
00000000
00000010
00000000
00000000
00000100
00000000
00000000
00100000
,
00000000
00000000
01000000
00000000
00000000
00100000
00000000
00000000
,
00000100
00000000
00000000
00000100
00000001
00000000
00100000
00100000
,
00100000
00100000
00100000
00000000
00000100
00000000
00000000
01000000
,
00000000
00000000
00000010
00000000
00000000
00000100
00000000
00000000
,
00000100
00000000
00000000
00100000
00000000
00000000
01000000
00000000
,
00000000
00000010
00000000
00000000
00100000
00000000
00000000
00100000
,
00000000
00000000
00000100
00000000
00000000
00000010
00000000
00000000
,
01000000
00000000
00000000
00100000
00000000
00000000
00100000
00000000
,
00000000
01000000
00000000
00000000
00000100
00000000
00000000
01000000
,
00000000
00000000
00000010
00000000
00000000
00100000
00000000
00000000
,
00000010
00000000
00000000
01000000
00000000
00000000
00100000
00000000
,
00000000
01000000
00000000
00000000
00000010
00000000
00000000
00000100
,
00000000
00000000
00100000
00000000
00000000
01000000
00000000
00000000
,
00000100
00000100
00010000
10000000
,
00000001
00000000
10100000
00000000
;
