#TITLE:[REMIX] Mr.Lapus + Bee + Extravagnaza;
#SUBTITLE:;
#ARTIST:BanYa;
#TITLETRANSLIT:;
#SUBTITLETRANSLIT:;
#ARTISTTRANSLIT:;
#GENRE:;
#CREDIT:locuuraa;
#LYRICSPATH:;
#MUSIC:[REMIX] Mr.Lapus + Bee + Extravagnaza.ogg;
#OFFSET:0.500;
#SAMPLESTART:11.800;
#SAMPLELENGTH:12.000;
#SELECTABLE:YES;
#BPMS:0.000=190.000,306.000=160.000,398.000=80.000,404.000=120.000,410.000=160.000,518.000=260.000,800.000=10.000,800.021=260.000,805.000=10.000,805.021=290.000,810.000=10.000,810.021=260.000,815.000=10.000,815.021=260.000,820.000=10.000,820.021=260.000,825.000=10.000,825.021=260.000,830.000=10.000,830.021=260.000,835.000=10.000,835.021=260.000,839.000=10.000,839.021=260.000,844.000=10.000,844.021=260.000,849.000=10.000,849.021=260.000,854.000=10.000,854.021=260.000,858.000=10.000,858.021=260.000;
#STOPS:;
#KEYSOUNDS:;
#BANNER:[REMIX] Mr.Lapus + Bee + Extravagnaza.png;
#BACKGROUND:[REMIX] Mr.Lapus + Bee + Extravagnaza.png;
#CDTITLE:../CDTitles/4DSS.png;
#BGCHANGES:-14.700=[REMIX] Mr.Lapus + Bee + Extravagnaza.avi=1.000=0=0=1,
229.000=[REMIX] Mr.Lapus + Bee + Extravagnaza.png=1.000=0=0=1,
99999=-nosongbg-=1.000=0=0=0
;
#NOTES:
     ds3ddx-single:
     Remix:
     Challenge:
     8:
     :
00000000
00000000
00000000
00000000
,
00000000
00000000
10100000
00000000
,
00000010
01000000
00000010
00000000
11000000
00000000
00000000
00000010
,
01000000
00000010
00000000
00000000
11000011
00000000
00000000
00000000
,
00100000
00000000
00000100
00100000
,
00000101
00000000
00000000
00000000
10100000
00010000
10000000
00010000
,
00000101
00010000
00000001
00010000
10100000
00000001
10000000
00000001
,
10000100
00000001
10000000
00000001
10100000
00010000
10000000
00010000
,
00000101
00010000
00000001
00010000
10100000
00000001
10000000
00000001
,
10000100
00000001
10000000
00000001
00000100
00100000
00000010
01000000
,
00100000
00000100
00100000
01000000
00100000
01000000
00000100
00000010
,
01000000
00000100
00100000
00000100
10100000
00010000
10000000
00010000
,
00000101
00010000
00000001
00010000
10000100
00000001
10000000
00000001
,
10000100
00000001
10000000
00000001
01000000
00000100
00100000
01000000
,
00000010
00000100
01000000
00100000
00000100
00000010
01000000
00000100
,
00100000
00000010
00000100
00100000
00000100
00000100
01000000
01000000
,
00000010
00000010
01000000
01000000
00000100
00000100
00100000
00000010
,
00100000
00000010
01000000
00000010
10100000
00010000
10000000
00010000
,
00100001
00010000
00000001
00010000
10000100
00000001
10000000
00000001
,
10100000
00000001
10000000
00000001
00100000
00000100
00100000
00000100
,
00100000
00000010
00100000
00000010
01000000
00000100
00100000
00000100
,
00100000
00000010
01000000
00100000
00000010
01000000
00000100
01000000
,
00000010
00000100
01000000
00100000
00000010
00000100
01000000
00100000
,
00000010
01000000
00000100
00100000
01000000
00000100
00000010
01000000
,
00100000
00000100
01000000
00000100
01000000
00000100
00100000
01000000
,
00000100
00000010
01000000
00000100
01000000
00000100
01000000
00000100
,
01000000
00000010
01000000
00000100
00100000
00000010
00100000
00000010
,
00000100
00000010
01000000
00000010
00100000
00000100
01000000
00000010
,
00100000
00000100
00100000
01000000
00000010
00000100
00100000
00000010
,
00100000
00000010
01000000
00000000
11000011
00000000
00000000
00000000
,
00010101
00000000
10110000
00000000
,
00000100
01000000
11000101
00000000
,
00100000
00000000
00000011
00000000
,
11000000
00000010
10100011
00000000
,
00100000
00000000
00000100
00000000
,
00100000
00000100
00100101
00000000
,
00100000
00000000
00000011
00000000
,
01000000
00000000
00000010
00000000
01000000
00000000
00000010
00000000
01000000
00000000
00000010
00000000
00000011
00000000
00000000
00000000
00000000
00000000
00000000
00000000
00000000
00000100
00000000
00000000
,
01000000
00000100
01000000
00000000
01000100
00000000
00000000
00100000
,
00000010
00100000
00000010
00000000
00100010
00000000
00000000
00000000
,
11000000
00000000
00000011
01000000
,
01000011
00000000
00000000
00000000
00100000
01000000
00100000
01000000
,
00100000
01000000
00000100
00000010
00000100
00000010
01000000
00000100
,
01000000
00000100
00100000
00000010
01000000
00000100
00100000
01000000
,
00000100
00000010
00100000
00000010
01000000
00000100
00100000
00000100
,
00100000
00000100
01000000
00000010
00100000
00000100
01000000
00000010
,
00100000
00000100
00100000
01000000
00100000
01000000
00000100
00000010
,
01000000
00000100
01000000
00000010
01000000
00000100
00100000
00000100
,
00000010
00000100
00000010
00100000
01000000
00000100
01000000
00100000
,
00000100
00000010
01000000
00100000
00000010
00000100
00100000
00000100
,
01000000
00000010
00100000
00000100
01000000
00000010
00100000
00000010
,
00100000
00000010
00100000
01000000
00100000
01000000
00100000
00000100
,
00100000
00000010
00000100
01000000
00100000
00000010
00000100
00100000
,
00000100
00000000
00000000
01000000
00000000
00000000
00000010
00000000
00000000
00000000
00000000
00000000
00100000
00000000
00000100
00000000
00100000
00000000
00000100
00000000
00100000
00000000
00000000
00000000
,
00000010
00000000
00100000
00000000
00000010
00000000
00100000
00000000
00000010
00000000
00000000
00000000
01000000
00000000
00000000
00000010
00000000
00000000
00100000
00000000
00000000
00000000
00000000
00000000
,
00000100
00000000
00000000
01000000
00000000
00000000
00000100
00000010
00000100
00000010
00000100
00000000
,
00100000
00000000
00000010
00000000
01000000
00000000
00000100
00000000
00000000
00100000
00000000
00000000
,
00000100
00000000
00000000
01000000
00000000
00000000
00000100
00000010
00000100
00000010
00000100
00000010
,
00100000
01000000
00100000
01000000
00100000
01000000
00000100
00000010
00000100
00000010
00000100
00000010
,
00100000
00000000
01000000
00000000
00100000
00000000
01000000
00000000
00100000
00000000
01000000
00000000
00000100
00000000
00000000
01000000
00000000
00000000
00000100
00000000
00000000
01000000
00000000
00000000
,
00100000
00000100
01000000
00000010
01000000
00000100
00100000
00000010
,
00000100
00100000
00000010
00100000
00000100
00000010
00000100
00100000
,
01000000
00100000
00000100
00000010
00000100
00100000
01000000
00000010
,
00100000
00000010
00100000
00000010
00000100
00100000
01000000
00000100
,
00000010
00100000
00000100
00100000
00000100
01000000
00000010
01000000
,
00000010
00100000
00000100
00100000
00000010
00100000
01000000
00100000
,
00000100
01000000
00000010
00100000
00000100
01000000
00000100
00100000
,
00000010
01000000
00100000
00000010
00000100
00100000
01000000
00000010
,
00100000
00000100
01000000
00000010
01000000
00000100
01000000
00000100
,
00000010
01000000
00100000
00000010
01000000
00000100
00000010
00100000
,
00000100
00100000
01000000
00000010
00000100
00100000
00000010
01000000
,
00000010
01000000
00000100
01000000
00000100
00100000
00000010
01000000
,
00100000
01000000
00100000
00000010
00100000
00000100
01000000
00000010
,
00100000
00000010
00100000
00000000
00000010
00000000
00000000
00000000
,
00100100
00000000
01000010
00000110
,
00100100
00000000
00000000
01100000
00000000
00000000
01000010
00000000
00000000
00000000
00000000
01000000
,
00000010
00000000
01000000
00000000
00000010
00000000
01000000
00000000
00000010
00000000
01000000
00000000
00000100
00000000
00000000
00100000
00000000
00000000
00000010
00000000
00000000
01000000
00000000
00000000
,
00000100
00100000
00000010
01000000
00000100
01000000
00100000
00000010
,
00100000
00000010
01000000
00000100
00100000
00100100
01000010
00000000
,
00100100
01000010
00100010
01000100
,
00100000
01100000
00000100
00000110
,
00100000
00100100
00000010
01000010
,
00000100
00000000
01000100
00000000
00100000
00000010
01000000
00000100
,
00100000
01000000
00100000
01000000
00000100
00000010
00000100
00000010
,
00100000
00000010
00100000
00000100
00100000
01000000
00000100
00000010
,
00100000
00000100
01000000
00000010
00100000
00000010
00000100
01000000
,
00000010
00000000
00000000
00100000
00000000
00000000
01000000
00000000
00000000
00000000
00000000
00000000
00000100
00000000
00000010
00000000
00000100
00000000
00000010
00000000
00000100
00000000
00000010
00000000
,
00000000
01000000
00000000
00000000
00000000
00000000
00100000
01000000
00100000
01000000
00100000
01000000
,
00000000
00000010
00000000
00000000
00000000
00000000
00100000
00000100
00100000
00000100
00000000
00000010
,
01000000
00000010
01000000
00000010
01000000
00000010
01000000
00000000
00000000
00000100
00000000
00000000
,
00100000
00000000
00000100
01000000
00100000
00000100
00000010
00000100
,
00000010
00100000
01000000
00000100
00100000
00000100
01000000
00000010
,
00100000
00000000
00000000
00000010
00000000
00000000
00100000
00000000
00000000
01000000
00000000
00000000
00000100
00000000
00000010
00000000
00000100
00000000
00000010
00000000
00000000
00000000
00100000
00000000
,
01000000
00100000
01000000
00100000
01000000
00100000
01000000
00000000
00000000
00000100
00000000
00000000
,
00100000
00000000
00000010
00000000
00100000
00000100
01000000
00000100
,
01000000
00000010
00100000
00000010
01000000
00000100
00100000
00000100
,
00100000
01000000
00000010
00100000
00000100
00100000
01000000
00000010
,
00000100
01000000
00000100
00100000
01000000
00000010
00000100
00100000
,
01000000
00100000
01000000
00000100
00000010
00000100
00000010
00100000
,
00000100
00100000
01000000
00000100
01000000
00000010
01000000
00000010
,
01000000
00000100
00100000
00000010
01000000
00000100
00100000
00000010
,
01000000
00000000
00000000
00000010
00000000
00000000
01000000
00000000
00000000
00000010
00000000
00000000
01000000
00000000
00000010
00000000
01000000
00000000
00000010
00000000
01000000
00000000
00000010
00000000
,
01000000
00000000
00000010
00000000
01000000
00000000
00000010
00000000
01000000
00000000
00000010
00000000
00000000
00000000
00000000
01000000
00000000
00000000
00000100
00000000
00000000
01000000
00000000
00000000
,
00000010
01000000
00100000
00000100
01000000
00000010
01000000
00000100
,
01000000
00000010
01000000
00000100
00000010
00000100
00000010
00100000
,
01000000
00000100
00000010
00100000
00000100
01000000
00000100
00100000
,
00000010
00100000
00000010
01000000
00000100
00000010
01000000
00100000
,
00000100
01000000
00000010
00000100
00100000
01000000
00100000
00000010
,
00000100
00000010
00100000
00000100
01000000
00100000
00000010
00000100
,
01000000
00000010
00100000
00000100
01000000
00000010
00100000
00000100
,
00100000
00000100
00100000
01000000
00100000
00000010
00000100
00100000
,
00000100
00000010
00100000
01000000
00100000
00000010
00000100
00100000
,
01000000
00100000
00000100
01000000
00000100
00000000
01000000
01000000
,
01000000
00000010
01000000
00000100
00000000
11000011
00000000
00000000
,
00110100
00000000
00000000
00000000
00000101
00000000
01000000
00000010
,
01000000
01000000
00000010
01000000
00000101
00000000
00000000
00000000
,
11000101
00000000
00000000
00000000
00100000
00000100
00100000
01000000
,
00000010
01000000
00100000
00000100
00100000
00000010
00100000
01000000
,
00000010
00000100
00000000
00000000
00000100
00000000
01000000
00000010
,
01000000
01000000
00000010
01000000
00000100
00000000
01000000
00000000
,
11000101
00000000
00000000
00000000
00100000
00000000
00000010
01000000
,
00000010
00000010
01000000
00000010
00100000
00000000
00000010
00000000
,
00100000
00000000
00000000
00000100
00000000
00000000
01000000
00000000
00000000
00000010
00000000
00000000
00100000
00000000
00000100
00000000
00100000
00000000
00000100
00000000
00100000
00000000
00000100
00000000
,
01000000
00000010
01000000
00000010
01000000
00000010
00100000
01000000
00100000
01000000
00100000
01000000
,
00000100
00000000
00000010
00000000
00000100
00000000
00000010
00000000
00000100
00000000
00000010
00000000
01000000
00000000
00000000
00000010
00000000
00000000
00100000
00000000
00000000
00000100
00000000
00000000
,
00100000
00000010
01000000
00100000
00000100
01000000
00000100
00000010
,
00100000
00000010
01000000
00000000
00100101
00000000
00000000
00000000
,
00000000
00000000
10100011
00000000
,
01000000
11000101
00000000
00100000
00110100
00000000
00000000
00000100
,
00100100
00000000
00000000
00000100
11000011
00000000
00000000
00000000
,
00000000
00000000
00000000
00000000
,
00000000
00000000
00000000
00000000
,
00000000
00000000
00000000
00000000
,
00000000
00000000
00000000
00000000
,
00000000
00000000
00000000
00000000
00000000
00000000
00100000
00100000
,
00000100
00000100
00100000
01000000
00000010
01000000
00100000
00000100
,
00100000
01000000
00000100
00000010
01000000
00000010
01000000
00000100
,
00100000
00000100
01000000
00000010
00100000
00000010
00100000
00000100
,
01000000
00000010
00100000
00000100
00100000
01000000
00000010
00000100
,
00100000
00000100
01000000
00000010
00100000
01000000
00100000
01000000
,
00000100
00000010
00000100
00000010
00100000
00000010
00000100
01000000
,
00000010
01000000
00000010
00100000
00000100
01000000
00000100
00000010
,
00100000
00000010
01000000
00000100
01000000
00000010
01000000
00000010
,
01000000
00000010
00000100
00100000
00000100
01000000
00000010
00100000
,
00000100
01000000
00000100
00100000
00000010
00100000
01000000
00000010
,
00000100
00100000
00000010
01000000
00000100
01000000
00000010
00100000
,
00000100
01000000
00100000
00000010
00000100
01000000
00100000
00000010
,
00100000
00000010
00000100
00100000
00000100
01000000
00100000
00000010
,
00100000
00000100
01000000
00000010
00000100
00100000
01000000
00000010
,
00100000
00000100
00100000
00000010
01000000
00000010
01000000
00000100
,
00100000
00000010
01000000
00000100
00100000
00000010
01000000
00000100
,
01000000
00000010
00000100
00100000
00000010
01000000
00000100
00100000
,
00000100
01000000
00000010
00000100
00100000
01000000
00000100
00100000
,
00000100
00100000
00000010
01000000
00000100
00100000
00000010
01000000
,
00100000
00000100
00000010
00000100
00000010
00000100
00000010
00100000
,
01000000
00000100
00100000
00000100
01000000
00000010
01000000
00000010
,
01000000
00100000
00000100
00100000
00000010
01000000
00000100
00100000
,
00000010
00100000
01000000
00100000
01000000
00000100
00000010
01000000
,
00000100
00000010
00100000
01000000
00000010
00100000
00000100
00000010
,
01000000
00000100
00100000
00000100
01000000
00000010
00000100
00100000
,
00000100
00000010
00100000
01000000
00100000
01000000
00000100
00000010
,
00100000
00000100
01000000
00000100
01000000
00100000
00000010
00000100
,
00100000
01000000
00000010
00100000
00000100
00100000
01000000
00000100
,
00100000
00000010
01000000
00000100
01000000
00000010
00100000
00000100
,
01000000
00000010
00100000
00000100
01000000
00000100
00000010
00100000
,
01000000
00000010
00100000
00000100
00100000
01000000
00000010
00100000
,
00000100
00100000
01000000
00100000
01000000
00000010
00000100
00100000
,
00000010
01000000
00000010
00000100
00100000
00000100
00100000
01000000
,
00000010
00000100
00100000
00000010
01000000
00100000
00000010
00100000
,
00000100
01000000
00000010
00000100
00100000
01000000
00100000
00000100
,
00000010
01000000
00100000
00000010
00000100
01000000
00000100
00100000
,
00000010
00100000
00000100
01000000
00100000
00000010
00000100
01000000
,
00000010
00000100
01000000
00000010
01000000
00000100
00100000
00000100
,
01000000
00000010
00100000
00000010
00100000
00000100
01000000
00100000
,
00000010
00000100
00100000
00000100
01000000
00000100
00100000
01000000
,
00000010
00100000
00000100
01000000
00000100
00100000
00000010
01000000
,
00000010
01000000
00000100
01000000
00000100
01000000
00100000
01000000
,
00100000
00000010
00100000
00000100
00000010
01000000
00100000
00000010
,
00100000
01000000
00000010
00000100
01000000
00000100
00000010
00100000
,
00000100
00100000
01000000
00100000
00000010
00100000
00000100
01000000
,
00000100
00000010
00100000
01000000
00000100
00100000
00000010
01000000
,
00100000
00000100
01000000
00000010
00100000
00000100
01000000
00000010
,
00000100
00100000
01000000
00000010
00000100
00100000
00000100
01000000
,
00000010
00100000
01000000
00100000
01000000
00100000
01000000
00000100
,
00000010
00000100
00000010
00000100
00000010
00100000
00000100
00100000
,
00000100
01000000
00000100
00100000
00000010
01000000
00000100
00100000
,
00000100
01000000
00000010
01000000
00000010
00000100
00100000
01000000
,
00000100
01000000
00000010
01000000
00100000
01000000
00000100
00100000
,
00000010
01000000
00100000
00000010
00100000
01000000
00000100
00000010
,
01000000
00100000
00000100
01000000
00000010
00100000
00000100
01000000
,
00000100
00100000
00000010
00100000
00000010
00100000
00000010
01000000
,
00000100
00100000
01000000
00000100
00100000
01000000
00000010
00100000
,
00000100
00100000
00000010
00000100
00100000
01000000
00000100
00000010
,
00000100
01000000
00100000
00000100
01000000
00000100
01000000
00000010
,
01000000
00000010
00000100
00100000
01000000
00000100
01000000
00000010
,
00100000
00000100
01000000
00000010
01000000
00100000
00000010
00000100
,
00100000
00000100
01000000
00000100
00100000
00000010
00000100
01000000
,
00000100
01000000
00100000
00000100
00100000
00000010
00100000
00000100
,
01000000
00000010
00100000
00000100
00100000
00000010
00100000
01000000
,
00100000
00000100
00100000
00000010
01000000
00000100
00100000
01000000
,
00000100
00000010
00000100
00000010
00000100
00000010
00000100
00000010
,
00000000
00000000
00100000
01000000
00100000
01000000
00100000
01000000
,
00100000
01000000
00000000
00000000
00000100
00100000
00000100
00100000
,
00000100
00100000
00000100
00100000
00000000
00000000
00000010
01000000
,
00000010
01000000
00000010
01000000
00000010
01000000
00000000
00000000
,
00000100
01000000
00000100
01000000
00000100
01000000
00000100
01000000
,
00000000
00000000
00100000
00000010
00100000
00000010
00100000
00000010
,
00100000
00000010
00000000
00000000
00100000
01000000
00100000
01000000
,
00100000
01000000
00100000
01000000
00000000
00000000
00000100
00000010
,
00000100
00000010
00000100
00000010
00000100
00000010
00100000
00000100
,
00100000
00000100
00100000
00000100
00100000
00000100
00000000
00000000
,
00100000
00000010
00100000
00000010
00100000
00000010
00100000
00000010
,
00000000
00000000
00000100
01000000
00000100
01000000
00000100
01000000
,
00000100
01000000
00000000
00000000
00100000
00000100
00100000
00000100
,
00100000
00000100
00100000
00000100
01000000
00000010
01000000
00000010
,
01000000
00000010
01000000
00000010
00100000
00000010
01000000
00000100
,
01000000
00000010
00100000
00000100
00100000
00000100
01000000
00000010
,
00000100
00100000
01000000
00100000
00000100
00100000
01000000
00000010
,
00000100
01000000
00000100
01000000
00000010
00100000
00000010
01000000
,
00000100
00100000
00000010
00100000
01000000
00000100
00000010
00000100
,
00000010
00000100
00000010
00100000
01000000
00100000
00000100
01000000
,
00000100
00100000
01000000
00100000
01000000
00000100
00000010
00100000
,
00000010
01000000
00000100
00100000
00000010
01000000
00100000
00000100
,
01000000
00000010
00000100
01000000
00100000
00000100
01000000
00000010
,
01000000
00000100
00100000
00000100
00100000
00000010
00100000
00000100
,
01000000
00000010
01000000
00000100
00100000
00000010
01000000
00000100
,
00000010
00100000
00000010
01000000
00000100
00100000
00000100
00100000
,
01000000
00000010
00100000
00000100
00100000
00000100
01000000
00000010
,
00100000
00000100
01000000
00000100
00000010
00100000
00000100
01000000
,
00000010
00000100
01000000
00000010
00100000
00000100
00100000
00000100
,
01000000
00000010
01000000
00000010
00000100
00100000
00000010
00000000
;
