#TITLE:[REMIX] MoonLight + Winter + Dignity;
#SUBTITLE:;
#ARTIST:BanYa;
#TITLETRANSLIT:;
#SUBTITLETRANSLIT:;
#ARTISTTRANSLIT:;
#GENRE:;
#CREDIT:locuuraa;
#LYRICSPATH:;
#MUSIC:[REMIX] MoonLight + Winter + Dignity.ogg;
#OFFSET:0.880;
#SAMPLESTART:12.040;
#SAMPLELENGTH:12.000;
#SELECTABLE:YES;
#BPMS:0.000=180.000,131.000=90.000,167.000=120.000,172.000=180.000,256.000=168.010,260.000=168.010,265.000=168.010,415.000=195.050,418.000=195.050,670.000=15.000,670.250=195.050,670.500=195.050,671.000=195.050;
#STOPS:;
#KEYSOUNDS:;
#BANNER:[REMIX] MoonLight + Winter + Dignity.png;
#BACKGROUND:[REMIX] MoonLight + Winter + Dignity.png;
#CDTITLE:../CDTitles/4DSS.png;
#BGCHANGES:-14.700=[REMIX] MoonLight + Winter + Dignity.avi=1.000=0=0=1,
229.000=[REMIX] MoonLight + Winter + Dignity.png=1.000=0=0=1,
99999=-nosongbg-=1.000=0=0=0
;
#NOTES:
     ds3ddx-single:
     Remix:
     Challenge:
     8:
     :
00000000
00000000
00000000
00000000
,
00000000
00000000
00000000
00000000
,
00000000
00000000
00000000
00000100
,
00100100
00000000
01000000
00000000
01000010
00000000
00000100
01000000
,
00000010
00100000
00000100
00100000
00000010
01000000
00000011
00000000
,
00000000
00000000
00000000
00000000
00000000
00000000
00000100
01000000
,
00000100
01000000
00000010
00100000
00000100
01000000
00000010
00100000
,
00000100
01000000
00000100
00100000
00100100
00000000
00000100
00100000
,
00000010
01000000
00000100
00100000
00000010
00100000
00000100
01000000
,
00000010
00100000
00000100
01000000
01000010
00000000
00100000
00000010
,
00100000
01000000
00100000
00000100
00100000
00000100
01000000
00000100
,
00100000
00000010
01000000
00000010
01000010
00000000
00000100
00100000
,
00000010
01000000
00000100
00100000
00100100
00100100
00100000
00000010
,
00100000
00000010
01000000
00000010
01000010
01000010
00100000
00000010
,
00100000
00000100
01000000
00000010
01000000
00000010
00100000
00000100
,
01000000
00000010
00100000
00000010
01000000
00000100
00100000
00000100
,
00100000
00000100
01000000
00000010
01000000
00000010
00100000
01000000
,
00100000
01000000
00000100
00000010
00000100
00000010
01000000
00000010
,
01000000
00000000
00000000
00000100
00000000
00000000
00100000
00000000
00000000
00000100
00000000
00000000
01000000
00000000
00000000
00000010
00000000
00000000
00000100
00000000
00100000
00000000
00000000
00000000
,
00000100
01000000
00000011
00000000
00000000
00000000
00000000
00000000
00000000
00000000
00000000
00000000
,
00000000
00000000
00000000
00000000
00000000
00000000
00000010
11000000
,
00000000
00100000
00000010
00000000
01000000
00000010
00000000
00100000
,
00000100
01000000
00000010
00000000
01000010
00000000
00100000
00000011
,
00000000
01000000
00000100
00000000
00100000
00000011
00000000
00100000
,
00000100
00000000
00100000
00000000
00000010
00000000
00000000
01000010
00000000
00000000
00000000
00000000
00000100
00000000
01000000
00000000
,
00000000
00100000
00000010
00000000
00000100
00100000
00000000
00000010
,
01000000
00000100
00100000
00000000
00000100
00100000
00000010
01000000
,
00000100
01000000
00000010
00100000
00100100
00000000
00100000
00000100
,
01000000
00000010
00100000
00000010
01000010
00000000
00000010
00100000
,
00000100
00100000
00000010
01000000
01000010
00000000
00100000
00000010
,
01000000
00000100
00100000
00000100
10100000
00000000
00000101
00000000
,
00000000
00000000
00000000
00000000
,
01000000
01000000
00000011
00100000
,
01000000
00000000
00000000
00000000
00000100
00000100
01000000
00000000
,
00000011
00000000
00000000
00000000
01000000
00000010
00000100
00000000
,
00100000
00100100
01000000
11000011
,
00000000
00100000
00100100
00000000
00000000
00000000
00000100
00000100
,
00100000
00100000
00000010
01000000
00000100
00100000
00000011
00000000
,
00000000
01000000
01000010
00000000
00000000
00000000
00010100
00000000
,
01000000
00000100
11000000
00000011
,
00000000
00000000
00000000
11000000
,
00000000
00000000
00000000
00000011
00000000
00000000
00000000
00000000
00000000
00100000
00000010
00100000
,
00000010
00100000
00000010
01000000
00000100
00100000
00000010
01000000
00000100
00100000
00000010
01000000
,
00000000
00000010
00100000
00000100
01000000
00000010
01000000
00000010
,
01000000
00000100
00100000
00000010
01000000
00000010
01000000
01000010
,
00100000
00000100
01000000
00000100
00100000
00000010
01000000
00000010
,
00100000
00000010
01000000
00000100
00100000
00000100
00100000
00100100
,
00000010
01000000
00000100
00100000
00000010
00100000
00000100
01000000
,
00000010
01000000
00000100
00100000
00000010
01000000
00000010
01000010
,
00100000
00000100
01000000
00000010
00100000
00000010
01000010
01000010
,
00100000
00000100
01000000
00000010
00100000
00000100
00100000
00100100
,
00100100
01000000
00000010
01000000
00000010
00100000
00000100
00100000
,
00000100
00100000
01000000
00100000
01000000
00000100
00000010
00000100
,
00000010
00100000
00000100
00100000
00000100
01000000
00000100
01000000
,
00000100
00100000
00000010
00100000
00000010
01000000
00000010
01000000
,
00000010
00100000
01000000
00100000
01000000
00000100
00000010
00000100
,
00000010
01000000
00000100
00100000
00000010
01000000
00000010
00100000
,
00000100
00100000
00000100
01000000
00000010
00100000
00000100
00100000
,
01000000
00000100
00000010
01000000
00000100
00100000
00000010
01000000
,
00000010
00000000
00100000
00000100
00000000
00000000
01000000
00000010
00000000
00000000
01000000
00000100
00000000
00000000
00100000
00000010
,
00000000
00000000
00100000
00000100
00000000
01000000
00000000
00000010
00000000
00000000
00100000
00000010
00000000
00000000
00000100
01000000
,
00000000
00000000
00100000
00000100
00000000
00000000
01000000
00000010
00000000
00000000
01000000
00000100
00000000
00000000
00100000
00000010
,
00000000
00000000
00100000
00000100
00000000
00000000
01000000
00000010
00000000
00000000
00100000
00000100
00000000
00000000
01000000
00000010
,
00000000
00100000
00000010
01000000
00000100
00100000
00000100
00000000
,
00100010
00000000
01000100
00000000
,
00100010
00000000
00000000
00000000
,
01000000
00000000
00000010
01000000
00000000
00000010
00000010
01000000
,
00000010
00000000
01000000
00000010
00000000
01000000
01000000
00000010
,
01000000
00000000
00000100
00000000
11000000
00000000
01000000
00000010
,
01000000
00000010
00000000
00000010
00000000
00000010
00000000
01000000
,
00000000
00000101
00000000
11000000
00000000
00000100
00000000
00000100
,
01000000
01000100
00100010
01000100
,
00100010
01000100
00000000
00000000
,
00000000
00100000
00000100
01000000
00000100
00100000
00000010
01000000
,
00000010
11000000
00000000
00000000
00000000
00000000
00000000
00000000
,
00000000
00000100
00100000
00000010
01000000
00000100
01000000
00000010
,
00100000
00000011
00000000
00000000
00000000
00000000
00000000
00000000
,
00000000
00100000
00000010
01000000
00000100
01000000
00000010
00100000
,
00000100
00100000
00000100
00100000
00000100
01000000
00000010
01000000
,
00000010
00100000
01000000
00100000
01000000
00000100
00000010
00000100
,
00000010
01000000
00000010
00000000
00100000
00000100
00100000
01000000
,
00000100
00000010
01000000
00000010
00100000
00000100
01000000
00000010
,
01000000
00000100
00100000
00000010
01000000
00000100
01000000
00000010
,
00100000
00000010
11000000
00000000
00000000
00000000
00000100
00100000
,
00000100
01000000
00000010
01000000
00000100
00100000
00000010
00100000
,
00000100
01000000
00000010
01000000
00000100
00100000
00000010
01000000
,
00000100
01000000
00000011
00000000
00000000
00000010
01000000
00000010
,
00100000
00000100
00100000
01000000
00000100
00000010
01000000
00000100
,
00100000
00000010
00100000
00000100
00100000
00000100
01000000
00000010
,
01000000
00000010
00100000
00000010
01000000
00000100
00100000
00000100
,
01000000
00000010
00100000
00000010
01000000
00000100
00100000
00000100
,
01000000
00000010
00100000
00000100
00100000
00000100
00100000
00000010
,
00100000
00000010
00100000
01000000
00100000
01000000
00000100
01000000
,
00000010
00100000
00000010
00000000
00000000
00000000
00000000
00000000
,
00000000
00000100
01000000
00000010
00100000
00000100
01000000
00000010
,
00100000
00000100
00000000
00000000
00000000
00000000
00000000
00000000
,
00000000
00100000
00000100
00100000
00000100
01000000
00000010
00100000
,
00000100
11000000
00000000
00000000
00000000
00000000
00000000
00000000
,
00000000
01000000
00000100
00100000
00000010
01000000
00000010
00100000
,
00000100
00100000
00000000
00000000
00000000
00000000
00000000
00000000
,
00000000
00100000
00000010
01000100
00000000
00100000
01000000
00000100
,
00000010
00100000
00000100
01000000
00000010
01000000
00000100
00100000
,
00000010
01000000
00000100
00100000
00000010
01000000
00000100
00100000
,
00000010
00100000
00000100
01000000
00000010
00000000
00000000
00000000
,
00000000
00000000
00000000
00000000
00100000
00000100
00000000
00000100
,
00100000
00000000
01000000
00000010
00000000
00000000
00000000
00000000
,
00000000
00000000
00000000
00000000
00000000
00000000
00100000
00000100
,
01000000
00000000
00000000
00000000
00000000
00000000
00000010
00000000
00000000
00000000
00000000
00000000
00100000
00000000
00000000
00000100
00000000
00000000
00000000
00000000
00000000
00000000
00000000
00000000
01000000
00000000
00000000
00000000
00000000
00000000
00000000
00000000
00000100
00000000
00000000
00000000
00000000
00000000
00000000
00000000
00000110
00000000
00000000
00000000
00100000
00000000
00000000
00000000
,
00000000
00000000
01100000
00000000
00000000
00000000
00000000
00000000
00000000
00000100
00000000
00000000
00100000
00000000
00000000
00000100
00000000
00000000
00100000
00000000
00000000
00000010
00000000
00000000
,
00100000
00000100
01000000
00000010
01000000
00000100
00100000
00000010
,
00000000
00000100
00000000
01000000
00000000
00000100
01000000
00000010
,
00100000
00000100
01000000
00000010
00100000
00000010
01000010
00000000
,
00000000
00000100
00100100
00000000
01000000
01000010
00000100
00100000
,
00000010
01000000
00000100
00100000
00000010
01000000
00000100
01000000
,
00000000
00000010
00000000
01000000
00000000
00100000
00000100
00100000
,
00000010
01000000
00000100
00100000
00000100
00100000
00100100
00000000
,
00000100
00100100
00000000
01000000
01000100
00000000
01000000
00000100
,
01000000
00000010
00100000
00000100
01000000
00000100
00100000
00000010
,
00100000
00000100
01000000
00000000
00000010
01000000
00000100
00100000
,
00000010
00100000
00000100
01000000
00000010
01000010
00000000
01000000
,
01000010
00000000
00100000
00000010
01000000
00000100
00100000
00000010
,
00100000
01000000
00100000
01000000
00000100
00000010
00000100
00000010
,
01000000
00000010
00100000
00000100
00000000
00100100
00000000
00000000
,
01000010
00000000
00000000
00100100
00000000
00000000
01000010
00000000
,
00100000
00000100
00100000
00000100
00000000
00100010
00000000
00000000
,
01000100
00000000
00000000
00100010
00000000
00000000
01000100
00000000
,
01000000
00000010
01000000
00000010
00000000
01000100
00000000
00000000
,
00100010
00000000
00000000
01000100
00000000
00000000
00100010
00000000
,
00000100
00100000
00000100
00100000
00000000
00100100
00000000
00000000
,
01000010
00000000
00000000
00100100
00000000
00000000
01000010
00000000
,
01000000
01000000
01100000
00000000
,
00000110
00000000
01000010
00000000
,
00100100
00000000
01000000
01000010
,
00000100
00000000
00100100
00000000
00100000
00000010
01000000
00000100
,
00100000
00000100
01000000
00000010
00100000
00000010
00100000
01000000
,
00100000
01000000
00000100
00000010
00000100
00000010
00100000
00000100
,
01000000
00000010
00100000
00000100
00100000
01000000
00100000
00000010
,
01000000
00000100
00100000
00000010
01000000
00000100
00100000
00000100
,
01000000
00000010
00100000
00000100
00100000
00000010
01000000
00000100
,
00100000
00000010
01000000
00000100
00100000
00000010
01000000
00000100
,
01000000
00000010
01000000
00000010
00100000
00000100
00100000
01000000
,
00000100
00000010
01000000
00000100
00100000
00000010
00100000
00000100
,
00100000
00000100
01000000
00000010
01000000
00000100
00100000
00000010
,
01000000
00000100
01000000
00000010
00100000
00000100
00100000
00000010
,
00100000
01000000
00100000
00000100
01000000
00000010
00100000
00000100
,
01000000
00000010
00100000
00000100
01000000
00000010
00100000
00000100
,
00100000
01000000
00100000
01000000
00100000
01000000
00000100
00000010
,
00000100
00000010
00000100
00000010
01000000
00000010
01000000
00000100
,
00100000
00000010
01000000
00000010
00100000
00000100
01000000
00000010
,
00100000
00000010
00100000
00000010
01000000
00000010
00000000
00000000
,
00000000
00000000
01000010
00000000
,
00000000
00100000
00100100
00000000
00000010
01000000
00000100
00100000
,
00000100
01000000
00000010
00100000
00000100
01000000
00000010
01000000
,
00000100
00100000
00000010
01000000
00000010
01000000
00000010
01000000
,
00100000
00000100
00100000
00000010
01000000
00000100
00100000
00000010
,
01000000
00000100
00100000
00000010
01000000
00000010
00100000
00000100
,
01000000
00000010
00100000
00000100
01000000
00000100
00100000
00000010
,
01000000
00000010
01000000
00000100
00100000
00000010
01000000
00000100
,
01000000
00000010
00100000
00000010
01000000
00000010
00000000
00000000
,
00100000
00000100
01000000
00000010
00100000
00000010
01000000
00000100
,
00100000
00000010
00100000
01000000
00000100
00000010
00100000
00000100
,
01000000
00000100
01000000
00000010
00100000
00000100
00100000
00000100
,
01000000
00000010
00100000
00000100
01000000
00000100
00100000
00000010
,
01000000
00000010
00100000
01000000
00000100
00000010
00100000
00000100
,
01000000
00000100
00100000
00000010
00100000
00000100
01000000
00000010
,
01000000
00000100
00100000
00000010
01000000
00000010
00100000
00000100
,
00100000
00000010
01000000
00000100
01000000
00000100
00100000
00000010
,
01000000
00000010
00100000
00000011
00000000
00000000
00000010
01000010
,
00000000
01000000
01000010
00000000
00000010
01000010
00000000
00100000
,
00100100
00000000
00000100
00100100
00000000
00100000
00100010
00000000
,
00000100
01000100
00000000
00100000
00100010
00000000
00000100
11000101
;
