#TITLE:[REMIX] Man Pattern;
#SUBTITLE:;
#ARTIST:Glaze;
#TITLETRANSLIT:;
#SUBTITLETRANSLIT:;
#ARTISTTRANSLIT:;
#GENRE:;
#CREDIT:locuuraa;
#LYRICSPATH:;
#MUSIC:[REMIX] Man Pattern.ogg;
#OFFSET:0.900;
#SAMPLESTART:12.000;
#SAMPLELENGTH:12.000;
#SELECTABLE:YES;
#BPMS:0.000=107.000;
#STOPS:;
#KEYSOUNDS:;
#BANNER:[REMIX] Man Pattern.png;
#BACKGROUND:[REMIX] Man Pattern.png;
#CDTITLE:../CDTitles/4DSS.png;
#BGCHANGES:-14.700=[REMIX] Man Pattern.avi=1.000=0=0=1,
229.000=[REMIX] Man Pattern.png=1.000=0=0=1,
99999=-nosongbg-=1.000=0=0=0
;
#NOTES:
     ds3ddx-single:
     Remix:
     Challenge:
     6:
     :
00000000
00000000
00000000
00000000
,
00000000
01000000
00000010
10100000
,
00000101
00000000
00100000
00000000
00000010
00000000
01000000
01000000
,
00000101
00000000
00000011
00000000
01000000
00000000
00000100
00000100
,
11000000
00000100
00000011
01000000
,
10000010
00000000
00000100
01000000
00000100
00000000
00100000
01000000
,
00110000
00000000
00000010
00000000
01000000
00000000
00000100
00100000
,
00000011
00100000
00000101
00100000
,
10110000
00000000
00000100
00000010
00000100
00000000
01000000
00000010
,
10100000
00000000
00000010
00000010
11000000
00000000
00000100
00100000
,
00000101
00000000
00100000
00000000
01000010
00000000
00000100
00000100
,
11000000
00000000
00100000
00000000
00000111
00000000
00100000
00100000
,
00000100
00000000
00100000
00000000
11000011
00000000
00000011
00010000
,
00000001
00000000
00000010
00100000
,
00000100
00110100
01000000
00000011
,
00000100
00000000
00000101
00000000
01000000
01000000
00000100
00000000
,
00100000
00100000
00000011
00000000
01000000
00000000
00010100
00000000
,
00000010
00000000
11000000
00000000
00000100
00100000
00000100
00100000
,
00000011
00000000
01000000
00000000
00100100
00000000
00000010
01000000
,
01000011
00000000
00000100
00000000
00000010
00000000
00100000
01000000
,
01110000
00000000
00000010
00000000
11000000
00000000
00000010
01000000
,
00100101
00000000
00000100
00000000
00110100
00000000
01000000
00000010
,
11000000
00000100
00001010
00100000
,
01010000
00000100
00100000
01000000
,
00000010
00000000
00000100
00000000
10100000
00000000
00010100
10000000
,
00000010
00000000
01000010
01000011
00000100
00100000
00000010
00000010
,
11000000
00000010
00100000
00000100
,
10100000
00000000
00000110
00000000
01000000
00000000
00000100
01000000
,
00000101
00000000
00100100
00000000
01110000
00000000
00000010
01000000
,
00000100
00000000
11000000
00000000
00000011
00000000
00100000
00000100
,
00110000
00000100
01000001
00100000
,
10000010
00000000
01000000
00000000
01000010
00000000
00000110
11000000
,
00000010
01000000
00110100
00000100
,
11000010
00000000
00000100
00000000
00100000
00000000
00000100
00100000
,
01001000
00000000
00000010
00000010
10100000
00000000
00100000
00000100
,
11000000
00000100
10100000
00000101
,
10100000
00000000
00000100
00000100
11000000
00000000
00100000
00100000
,
01000000
00000000
00000010
00000000
00100000
00000000
00100000
00000010
,
10100000
00000100
00011010
00100000
,
01011000
00000000
00000010
00000000
10100000
00000000
00100100
00000100
,
01000000
00000011
01000000
00000100
,
00010101
00000000
00100000
00000000
00000010
00000000
01000000
00100000
,
01000000
00000100
00001010
00100000
,
01010000
00000000
00000100
00000000
00000101
00000000
00110000
00000100
,
01000000
00000010
00000011
00100000
,
00000101
00000000
00100000
00000000
01000000
00000000
00000100
00000010
,
00010100
00000000
00100000
00100000
00000101
00000000
00000100
00000100
,
10100000
00000000
00000010
00000000
01000000
00000000
00000100
00100000
,
00000100
00100000
00000010
00000000
11000000
00000000
00000010
00000000
,
00100100
00000000
01000010
10000000
01000010
00000001
00100000
00000100
,
10100000
00000000
00000100
00000000
00000010
00000000
00000100
00000010
,
00000100
00000000
01000000
00000000
00000101
00000000
00100000
00000010
,
10100011
00000000
01000000
00000000
00010100
00000000
00100100
00000010
,
11000000
00000100
00100000
00000101
,
00000011
00000000
01000000
01000000
00000010
01000000
00000100
00100000
,
00000011
00000000
00100000
00100000
00000010
01000000
00000100
00100000
,
00000011
00000000
00100000
00000000
01110000
00000000
00000100
00100000
,
00000010
01000000
00000100
00000000
00010000
00000000
10000001
00000000
,
00000100
00000000
11000000
00000000
00000100
00000000
01000000
00000010
,
00100000
00000100
10100000
00000000
00000101
00000000
01000000
00000010
,
10100000
00000100
00000110
00100000
,
01110000
00000000
00000100
00000000
00100000
00000000
00000100
00100000
,
00000010
01000000
00010100
00000000
01000000
00000000
10000010
00000000
,
00000100
00000000
10100001
00000000
00000010
00000000
01000010
00000010
,
00100000
00000010
01000000
00000000
00000101
00000000
01110000
00000000
,
00000100
00000000
00000010
00000000
01000000
00000000
00000100
00000100
,
00100000
00000010
11000000
00000000
00000000
00000000
00000000
00000000
,
00000000
00000000
00100000
00000100
01000000
00000011
01000000
00000010
,
00100000
00000101
00100000
00000100
01000000
00000010
01000000
01000000
,
00000010
00100000
00000100
01000000
00000011
01000000
00000100
00100000
,
00000010
01000000
00000010
00000010
11000000
00000000
00100000
00000100
,
00001010
00100000
01010000
00000100
,
00010010
00000000
01000000
00000000
00100101
00000000
00100000
01000000
,
00100000
00000000
00000010
00000010
11000000
00000000
00000100
01000000
,
00000101
00000000
00100100
00000010
11000000
00000000
00000100
00000100
,
00001010
00000000
00100000
00100000
01001000
00000000
00000010
01000000
,
00000101
00000000
00100000
00000100
00100000
00000100
11000000
00000000
,
00000011
00010100
01000000
00000011
,
00000011
00000000
00100000
00100000
00000011
00000000
00000101
10100000
,
00000010
01000000
00010100
00000000
01000000
00000000
00000100
00000000
,
00000010
00100000
00000101
01000000
,
00010100
00000000
01000000
00000000
00000010
00000000
01000000
00000100
,
00100100
00000000
00000100
00000000
11000000
00000000
00100000
00000100
,
11000000
00000100
01000001
00100000
,
01001000
00000100
00100000
00000010
,
01000000
00000100
00010101
01000000
,
11000000
10000101
00100000
00000110
,
00100000
00000000
01000000
00000000
00000010
00000010
11000000
00000000
,
00000100
00100000
00000011
00000000
00100000
00000000
01001000
00000000
,
00000100
00001010
00100000
00000010
,
10100000
00000000
00000100
00100000
00000001
01000000
00000100
10000000
,
00000010
01000000
00000101
00000000
01000000
00000000
00110100
00000000
,
00000010
01000000
11000011
00000000
01000000
00000000
00000010
00100000
,
00000100
00000010
00010110
00000000
00100000
00000000
00000010
00000000
,
01000000
00000000
00000100
00000100
10100000
00000000
00100000
00100000
,
00000101
01000000
00010101
00100000
,
00000011
00000100
00100000
00000010
,
01000001
00000000
01000000
00000000
00110100
00000000
00100000
01000000
,
00110000
00000000
00000100
00000010
00000100
00100000
00000101
00000000
,
11000000
00000010
00010100
10100000
,
00000010
00000000
11000000
00000000
00000100
00000100
00110000
00000000
,
01000000
00000100
00000110
00100000
,
11000000
00000010
01000001
00000101
,
01000000
00000000
00000100
00000000
00000011
00000000
00100000
01000000
,
01100000
00000000
00000100
00000000
11000000
00000000
00000010
01000000
,
00100000
00000100
00110100
00000010
,
01000011
00000100
00100000
00000010
,
00000010
11000000
00010100
01000000
,
00000010
00000000
11000000
00000000
00000100
00100000
00000100
00100000
,
00000010
01000000
00000100
00000000
00000101
00000000
00100000
00000000
,
01001000
00000000
00000100
00000000
00010010
00000000
01000000
00000010
,
00100000
00000100
01000000
00000000
00000011
00000000
01000000
01000000
,
00000010
00000000
00010100
00000000
00000010
00000000
01000000
00000010
,
01000000
00000010
00100000
00000000
00000011
00000000
00100000
00000010
,
01000000
00000100
00100000
00000000
00000011
00000000
00100000
00100000
,
00000100
00100000
00000011
00000000
01000000
00000000
00010100
00000000
,
10100000
00000000
00000000
00000101
00000000
00000000
10100000
00000000
00000010
00000000
00000000
00000000
,
00000000
00000000
00000000
01000000
00000000
00000000
00000000
00000000
00000000
00000000
00000011
00000000
00000000
00000000
00000000
00000000
00000000
00000000
00000000
00000000
00000000
00000000
00000000
00000000
00000000
00000000
00000000
00000000
00000000
00000000
00000000
00000000
00000000
00000000
00000000
00000000
00000000
00000000
00000000
00000000
00000000
00000000
00000000
00000000
00000000
00000000
00000000
00000000
;
