#TITLE:[REMIX] LOOK;
#SUBTITLE:;
#ARTIST:TO-YA;
#TITLETRANSLIT:;
#SUBTITLETRANSLIT:;
#ARTISTTRANSLIT:;
#GENRE:;
#CREDIT:locuuraa;
#LYRICSPATH:;
#MUSIC:[REMIX] LOOK.ogg;
#OFFSET:1.620;
#SAMPLESTART:11.640;
#SAMPLELENGTH:12.000;
#SELECTABLE:YES;
#BPMS:0.000=176.000;
#STOPS:;
#KEYSOUNDS:;
#BANNER:[REMIX] LOOK.png;
#BACKGROUND:[REMIX] LOOK.png;
#CDTITLE:../CDTitles/4DSS.png;
#BGCHANGES:-14.700=[REMIX] LOOK.avi=1.000=0=0=1,
229.000=[REMIX] LOOK.png=1.000=0=0=1,
99999=-nosongbg-=1.000=0=0=0
;
#NOTES:
     ds3ddx-single:
     Remix:
     Challenge:
     4:
     :
00000000
00000000
00000000
00000000
,
00000000
00000000
00000000
00000000
,
00000000
00000000
00000000
00000000
,
00000000
00000000
00000000
00000000
,
00000000
00000000
00000000
00000000
,
00000000
00000000
00000000
00000000
,
00000000
00000000
00000000
00000000
,
00000000
00000000
00000000
00000000
,
00000000
00000000
00000000
00000000
,
00000000
00000100
00000000
00000000
,
00000000
00100000
00000000
00000000
,
00000000
00000100
00000000
00000000
,
00000000
00000000
00000000
00000000
,
00000000
00000100
00000000
00000000
,
00000000
00100000
00000000
00000000
,
00000000
00000100
00000000
00000000
,
00000000
00000000
00000000
00000000
,
00000000
00000000
00000000
00000000
,
00000000
00000000
00000000
00000000
,
00000000
00000000
00000000
00000000
,
00000000
00000000
00000000
00000000
,
00000000
00100000
00000000
00010000
,
00000000
00010000
00000000
00010100
,
00000000
00000100
00000000
00100000
,
00000000
00000100
00000000
00100000
,
00000000
00000100
00000000
00000100
,
00000001
00000100
00000000
00000100
,
00000000
00100001
00000000
00100001
,
00000000
00100001
00000000
00100001
,
00000000
00000100
00000000
00100000
,
00000000
00000100
00000000
00000100
,
00000000
00100000
00000000
00000100
,
00000000
00100000
00000000
00000000
,
00000000
00100000
00000000
00100000
,
00000000
01000000
00000000
00100000
,
00000000
10000001
00000000
01000000
,
00000000
01000000
00000000
00000000
,
00000000
00000001
00000001
00000001
,
00000000
10000000
10000000
10000000
,
00000000
10000001
00000000
00010000
,
00000000
10000001
00000000
00000000
,
00000000
01010000
01000000
00110000
,
00010000
00100000
00000100
00100000
,
00000000
00010000
00000000
00010000
,
00000000
00100000
00000000
00100000
,
00000000
00100000
00000000
00100000
,
00000000
00010000
10000000
00100000
,
00000000
10000001
00000000
00000000
,
00000000
00000000
00000100
00100000
00000100
00000000
00100000
00000000
,
00100000
00000000
00000000
00000000
,
00000000
00000100
00100000
00000000
,
00000000
00100000
00000000
00100000
,
00000000
00100000
00000000
10100000
,
00000000
00100000
00000000
00100000
,
00000000
00100000
00000000
00100000
,
00000000
10000000
00000000
00000000
,
00000000
00000001
00000000
00000000
,
00000000
10100000
00000000
01000001
,
00000000
00000000
00000000
00000001
,
00000000
01001000
00000000
10000000
,
00000000
00000000
00000000
10000000
,
00000000
01001000
00000000
00000001
,
00000000
00000000
00000000
01000000
,
00000000
00110000
00000000
00110000
,
00000000
00110000
00000000
00110000
,
00000000
00110000
00000000
00110000
,
00000000
00110000
00000000
00110000
,
00000000
00100000
01000000
00100000
,
00100000
00000100
00000010
00000100
,
00000100
00110000
10000001
00000100
,
00000000
00100000
00000000
00000100
,
00000000
00010000
00000000
00010000
,
00000000
10000001
00000000
00010000
,
00000000
00000100
00100000
00100000
,
00000100
00010000
00010000
00010000
,
00000000
00010000
00000000
00100000
,
00100000
00010000
00000000
00000100
,
00000100
00010000
00000000
00000010
,
00000010
00001000
00000000
00000100
,
00000000
10000000
00000000
10010001
,
00000000
00010000
00000000
10010001
,
00000000
00111000
00000000
10100001
,
00000000
10100001
00000000
00010000
,
00000000
01000000
00000000
00100000
,
00000000
10000100
00000000
00100001
,
00000000
10000100
00000000
00000000
,
00000000
00000000
00000100
00100000
00000100
00000000
00100000
00000100
,
00100000
00000100
00100000
00010000
,
00000000
00010000
00000000
00000000
,
00000000
00110100
00000000
00110100
,
00000000
00100001
10100000
00110000
,
00000000
00010100
00000000
00010100
,
00000000
00010100
00000000
00010100
,
00000000
10000000
00010000
00000100
,
00000000
00000001
00010000
00100000
,
00000000
10000000
10000000
00000100
,
00000000
00000001
00000001
00100000
,
00000000
10000000
10000000
00000100
,
00000000
00010000
00000000
00000100
,
00000000
00010000
00010000
00000100
,
00000000
00010100
00000000
00010100
,
00000000
00010100
00000000
00010100
,
00000000
00010100
00000000
00010000
,
00000000
00000101
00000000
00000101
,
00000000
10100000
00000000
10100000
,
00000000
00100000
00000000
01000000
,
00000000
10000001
00000000
00000000
,
00000000
00000000
00000000
00000000
,
00000000
00000100
00100000
00000000
,
00000000
00100000
00000000
00100000
,
00000000
00100000
00000000
10100000
,
00000000
00100000
00000000
00100000
,
00000000
00100000
00000000
00100000
,
00000000
10000000
00000000
00000000
,
00000000
00000001
00000000
00000000
,
00000000
10100000
00000000
01000001
,
00000000
00000000
00000000
00000001
,
00000000
01001000
00000000
10000000
,
00000000
00000000
00000000
10000000
,
00000000
01001000
00000000
00000001
,
00000000
00000000
00000000
01000000
,
00000000
00110000
00000000
00110000
,
00000000
00110000
00000000
00110000
,
00000000
00110000
00000000
00110000
,
00000000
00110000
00000000
00110000
,
00000000
00100000
01000000
00100000
,
00100000
00000100
00000010
00000100
,
00000100
00110000
10000001
00000100
,
00000000
00100000
00000000
00000100
,
00000000
00010000
00000000
00010000
,
00000000
10000001
00000000
00010000
,
00000000
00000100
00100000
00100000
,
00000100
00010000
00010000
00010000
,
00000000
00010000
00000000
00100000
,
00100000
00010000
00000000
00000100
,
00000100
00010000
00000000
00000010
,
00000010
00001000
00000000
00000100
,
00000000
10000000
00000000
10010001
,
00000000
00010000
00000000
10010001
,
00000000
00111000
00000000
10100001
,
00000000
10100001
00000000
00010000
,
00000000
00000100
00000000
00010100
,
00000000
10100001
00000000
00100000
,
00000000
00000100
00000000
00010000
,
00000000
00110000
00000000
00100000
,
00000000
10000101
00000000
00000100
,
00000000
00100000
00000000
00110000
,
00000000
10000101
00000000
00000100
,
00000000
00100000
00000000
00110000
,
00000000
00100001
00100000
00100000
,
00000000
00100000
00100000
00000100
,
00000000
10100000
00000000
00000101
,
00000000
10100000
00000000
00000101
,
00000000
10000100
00000100
00000100
,
00000000
00000100
00000100
00100000
,
00000000
00000101
00000000
10100000
,
00000000
00000101
00000000
10100000
,
00000000
00000011
00000000
00000000
,
00000000
00000100
00000000
00000000
,
00000000
00100000
00000000
00000000
,
00000000
00100000
00000000
00000000
,
00000000
00000000
00000000
00000000
,
00000000
00000000
00000000
00000000
,
00000000
10000101
00000000
00000000
;
