#TITLE:[REMIX] HIPHOP三连曲;
#SUBTITLE:~ HIP HOP TRILOGY (Vivaldi in HipHop + Stan + We Are Electric);
#ARTIST:BeautifulDay & Eminem feat. Dido & Flying Steps;
#TITLETRANSLIT:HIPHOP sān lián qū;
#SUBTITLETRANSLIT:;
#ARTISTTRANSLIT:;
#GENRE:;
#CREDIT:locuuraa;
#LYRICSPATH:;
#MUSIC:[REMIX] HIPHOP三连曲.ogg;
#OFFSET:0.620;
#SAMPLESTART:11.900;
#SAMPLELENGTH:12.000;
#SELECTABLE:YES;
#BPMS:0.000=82.500,136.000=80.030,146.000=100.000,148.000=80.030,279.000=130.060,289.000=150.000,290.000=155.000,290.500=140.000,291.000=130.060;
#STOPS:;
#KEYSOUNDS:;
#BANNER:[REMIX] HIPHOP三连曲.png;
#BACKGROUND:[REMIX] HIPHOP三连曲.png;
#CDTITLE:../CDTitles/4DSS.png;
#BGCHANGES:-14.700=[REMIX] HIPHOP三连曲.avi=1.000=0=0=1,
229.000=[REMIX] HIPHOP三连曲.png=1.000=0=0=1,
99999=-nosongbg-=1.000=0=0=0
;
#NOTES:
     ds3ddx-single:
     Remix:
     Challenge:
     4:
     :
00000000
00000000
00000000
00000000
,
00000000
00000000
00000000
00000000
,
00000000
00000000
00000000
00000000
,
00000000
01000000
00000000
00000000
,
00000100
00000000
00000000
00100000
,
00000000
00000000
00000010
00000000
,
00000000
00100000
00000000
00000000
,
00000100
00000000
00000000
01000000
,
00000000
00000000
00000010
00000000
,
00000000
00000000
00000000
10000000
00000000
00000001
00000000
00100000
00000000
00000000
01000000
00000001
,
00010000
00000000
00001000
00000000
00000100
00000000
00000000
00000010
10000000
00000001
00000000
00010000
,
00000000
00100000
00000000
00000000
00000100
00000010
10000000
00000000
00010000
00000000
00000100
00000000
,
00000000
00100000
01000000
00000010
00000000
00000001
00000000
00000000
00000000
00100000
00000100
00000000
,
01000000
00000000
10000000
00000000
00000000
00000000
00000100
00100000
00000000
01000000
00000000
00000001
,
00000000
00000000
00000000
00000100
01000000
00000000
00000010
00000000
00000000
00000000
00000000
00000000
,
00000000
00010000
00000000
00100000
00000100
00100000
00000000
00000000
00000000
00000001
10000000
00000000
,
00100000
00000000
00000001
00000000
00000000
00000000
00000000
01000000
00000000
00000010
01000000
00000010
,
00000000
00000000
00000000
10000000
00000001
00000000
00000100
00000000
00100000
00000000
01000000
00000000
,
00000010
00000000
00000000
10100000
00000000
00000101
00000000
00000000
01000000
00000010
00000000
00000000
,
00100000
00000000
00000100
00000000
00000000
00000100
01000001
00000000
00000000
00000100
00000000
00110000
,
00000000
00000000
00000000
00000100
10000000
00000000
00010000
00000000
00000000
00000000
00000000
00000000
,
00000000
00000000
00000000
01000000
00000000
00000011
00000000
00000000
00000000
00000100
00100000
00000000
,
00000100
00000000
00110000
00000000
00000000
00000000
00100000
01000000
00000000
00000010
00000000
00000001
,
00000000
00000000
00000000
01000000
00000100
00000000
00010000
10000000
00000000
00000000
00010000
00000001
,
00000000
00000000
00000000
10100100
00000000
00010100
00000000
01000000
00000000
00000000
00000001
00000000
,
01000011
00000000
01010000
00000000
00000100
00000000
00000000
10000000
00000000
00000100
00000010
00000101
,
00000000
00100000
00000000
00000000
10000000
00000000
00100000
01000000
10100000
00000000
00000100
00000000
,
00000000
00000001
00000000
00100000
00000100
00100000
00000000
00000001
00000000
00000000
10000000
00000000
,
00000010
01000000
00000010
00000000
10000000
00000000
00000000
00000001
00000000
11000000
00000000
00000011
,
00000000
01000000
00000000
00000000
00100000
00000000
00000101
00000000
10100000
00000000
00000010
00000000
,
00000000
01000000
00000000
00000100
00000001
00100000
10000000
00000000
01000000
10000000
00000010
00000001
,
00100000
01000000
00000100
00000010
00000000
01000000
00000010
00100000
00000100
10000001
00000000
00010000
,
00000000
00000000
00010000
10000000
00000000
00000000
00010000
00000001
00000000
00000000
10000000
00000001
,
00000000
00000000
00000000
10000000
00000000
00000100
00100000
00000000
00000010
01000000
00000000
00010000
,
10000000
00000000
00000000
00000000
,
00000000
00000000
00000000
00000000
,
00000000
00000000
00000000
00000000
,
00000000
00000000
00000000
00000000
00100000
00000100
00100000
00100000
,
00000001
00000000
00000100
00000100
10000000
00000000
00100000
01000000
,
10000100
00000000
00000100
00000010
00100001
00000000
00100000
00000100
,
00100000
00000000
01000000
00000010
01000000
00000000
00000100
00000100
,
01010000
00000000
00100000
00100000
00010010
00000000
00100000
00000010
,
01010000
00000000
00000100
00100000
00010010
00000000
01000000
01000000
,
00010100
00000000
00100000
00100000
10000010
00000000
00000100
00000010
,
00000101
00000000
00100000
01000000
10100000
00000000
00000100
00000000
,
00000101
00000000
00100000
00000000
11000000
00000000
00000010
00100000
,
10000100
00000000
01000000
00000100
00100001
00000000
00000100
00000010
,
11000000
00000000
00000010
00100000
00000101
00000000
00100000
00100000
,
11000000
00000000
00000100
00000100
00000011
00000000
00100000
00000100
,
00100000
00000000
00000100
00000100
10000010
00000000
01000000
01000000
,
10100000
00000000
00000010
00000010
00000101
00000000
01000000
00000010
,
01000000
00000000
00100000
00100000
10000010
00000000
01000000
00100000
,
11000000
00000000
00000100
00000010
00000101
00000000
00010000
00000000
,
00000000
00000000
10000001
00100000
00000100
00000000
00100000
01000000
,
00000010
00000000
00000100
00000010
01000000
00000000
00100000
00000100
,
00100000
00000000
00000010
01000000
00000010
00000000
01000000
01000000
,
00000011
00000000
00000010
00000010
00110000
00000000
00000100
00000100
,
10100000
00000000
00100000
00100000
00000101
00000000
10000001
00000100
,
00100000
00000000
00010000
00000100
01000000
00000000
00100000
00000100
,
00010000
00000000
00000100
00100000
10000100
00000000
01000000
00000010
,
01000001
00000000
00100000
00000010
00001000
00000000
00000100
01000000
,
00010000
00000000
10000001
00000000
00000000
00000000
00100000
00000100
,
00100001
00000000
00000100
00100000
10000100
00000000
00100000
01000000
,
00000011
00000000
00000100
00000010
11000000
00000000
00000100
00100000
,
00010000
00000000
01000000
00000010
00010000
00000000
00100000
00100000
,
00010100
00000000
01000000
01000000
00010010
00000000
00100000
01000000
,
00100001
00000000
00000100
00000010
10000100
00000000
00100000
00000100
,
00100001
00000000
00000100
00100000
10000100
00000000
00000010
00000010
,
11000000
00000000
00100000
00100000
00000101
00000000
01000000
00100000
,
00000011
00000000
00000010
00000100
11000000
00000000
10000001
00000000
,
00000000
00000000
00000000
00000000
,
00000000
00000000
00000000
00000000
,
00000000
00000000
00000000
00000000
,
00000000
00000000
00000000
00100000
,
00000100
00000000
00000000
00000000
00000000
00000000
00000000
00000000
00000001
10000000
00000000
00000000
00100000
00000000
00000000
00000000
,
00000100
00000000
00000000
00000000
00000000
00000000
00000000
00000000
10000000
00000001
00000000
00000000
00100000
00000000
00000000
00000000
,
00000010
00000000
00000000
00000000
00000000
00000000
00000000
00000000
10000000
00000001
00000000
00000000
00000010
00000000
00000000
00000000
,
01000000
00000000
00000000
00000000
00000001
10000000
00000000
00000000
00000000
00000000
00000000
00000000
00100000
00000000
00000000
00000000
,
00000100
00100000
00100000
00000100
,
00000010
00100000
01000000
00000100
,
00100000
00000100
00000100
00100000
,
01000000
00000000
00000100
00000000
00000010
00000000
00100000
01000000
,
00000100
00000000
00100000
00000000
10100000
00000000
00000100
00000010
,
00100000
00000000
00000100
00000000
00000101
00000000
00100000
00000100
,
00100000
01000001
10000010
00011000
,
00000000
00000000
00000000
00100000
,
00000100
00000100
00100001
01000000
,
00100000
00000100
00100001
00000010
,
01000000
01000000
10000010
00000100
,
00000010
01000000
10000010
00100000
,
00100000
00000100
00000100
00100000
,
01000000
10000010
00000000
00100000
,
00000010
00100000
00100000
00010000
,
00000101
00000000
00000000
01000000
,
00100000
00000100
00000100
00100000
,
00000100
00000010
01000000
00001000
,
01000000
00000010
00001000
00100000
,
00100000
00000100
00000100
10100001
,
00000000
00000000
00000000
00010100
,
00000000
10100000
00000000
00010010
,
00000000
00000000
00000000
00110000
,
00000000
00000000
00010100
00000000
00000000
00000000
00100000
00000100
,
00100000
00000000
00010000
00000000
00010000
00000000
00000010
01000000
,
00000010
00000000
00010000
00000000
00010000
00000000
00100000
01000000
,
00100000
00000001
00000001
00000100
,
00000100
10010000
00000000
00100000
,
00000100
00100000
00100000
00000100
,
00000010
00100000
01000000
00000100
,
00100000
00000100
00000100
00100000
,
01000000
00000000
00000100
00000000
00000010
00000000
00100000
01000000
,
00000100
00000000
00100000
00000000
10100000
00000000
00000100
00000010
,
00100000
00000000
00000100
00000000
00000101
00000000
00100000
00000100
,
00100000
01000001
10000010
00011000
,
10000000
00000001
00000000
00100000
00000100
00000000
10000001
00000000
,
00100000
00000100
00000000
00000001
10000000
00010000
00100100
00000000
,
10000000
00000001
00000000
00000010
01000000
00000000
00011000
00000000
,
00000010
01000000
00000000
10000000
00000001
00000000
00110100
00000000
;
