#TITLE:[REMIX] Enter The Dragon;
#SUBTITLE:;
#ARTIST:JTL;
#TITLETRANSLIT:;
#SUBTITLETRANSLIT:;
#ARTISTTRANSLIT:;
#GENRE:;
#CREDIT:locuuraa;
#LYRICSPATH:;
#MUSIC:[REMIX] Enter The Dragon.ogg;
#OFFSET:1.060;
#SAMPLESTART:11.520;
#SAMPLELENGTH:12.000;
#SELECTABLE:YES;
#BPMS:0.000=110.050;
#STOPS:;
#KEYSOUNDS:;
#BANNER:[REMIX] Enter The Dragon.png;
#BACKGROUND:[REMIX] Enter The Dragon.png;
#CDTITLE:../CDTitles/4DSS.png;
#BGCHANGES:-14.700=[REMIX] Enter The Dragon.avi=1.000=0=0=1,
229.000=[REMIX] Enter The Dragon.png=1.000=0=0=1,
99999=-nosongbg-=1.000=0=0=0
;
#NOTES:
     ds3ddx-single:
     Remix:
     Challenge:
     5:
     :
00000000
00000000
00000000
00000000
,
00000000
00000000
00000000
00000000
,
00010100
00000000
00000000
00000000
,
00000000
00000000
00000000
00000000
,
00000100
00000000
00000010
00000000
00000100
01000000
00000010
00000000
,
01000000
00000000
00000010
10000000
00000000
00000000
00000000
00000000
,
00100000
00000000
00000010
11000001
00010000
00000000
00010000
00000000
,
00000010
00000000
00100000
00000000
00010000
00000000
00100000
00000010
,
01000000
01000010
11000010
00000000
,
01000000
10000000
01000100
00010000
,
00100100
00000000
00100100
00000000
00000010
00000100
00100100
00000000
,
00100001
00000000
10000100
00000000
00000010
01000000
00000100
00000000
,
10100101
00000000
00100100
00000000
00000100
00100000
00000100
00000000
,
00000001
00100000
00100000
00000001
,
00100000
00000000
00000100
00000000
00000100
00100000
00000001
00000000
,
00100000
10000000
00000100
00000001
,
10000001
00000010
00010000
00000100
,
01000010
00000000
00100100
00000000
00100000
00100000
00000100
00000000
,
00100000
00000100
10100000
00000000
00100000
00000000
00100000
00000000
,
10000001
00000000
00000000
00000000
,
00000100
00000000
01000000
00000100
00100000
00000010
10000001
00000000
,
00000010
00000000
00100000
00000000
00010000
00010000
00010000
00010000
,
00100100
00000000
00100100
00000000
00100000
00100000
00000100
00000000
,
00000000
00010000
00000000
00010000
,
00101000
00000010
00001100
00000010
,
01000010
01000010
00010000
10000001
,
00000010
10000000
00000010
00000001
00000000
00000000
00000000
00000000
,
01000000
00000000
00000100
00000000
00000100
00100000
00100000
00000000
,
00000001
10000000
00000001
10000011
,
10100001
01000000
00000100
00010000
,
00100100
00000000
00100100
00100100
,
10000000
00000100
00000001
00000001
,
00100000
10000000
00100000
10000000
,
00000000
00100000
00000100
00100000
,
00000100
00100000
01000000
00100001
,
11000000
00000000
00000000
01000000
,
00100000
01000000
00000010
00000010
,
00000010
00000001
01000000
10000000
,
00000001
00000000
01000010
00000000
00000000
00000000
01000000
00000010
,
11000000
00000000
00000010
00000000
01000000
00000000
00000010
01000000
,
00000011
00000000
01000000
00000000
00000010
00000000
01000000
00000010
,
00000000
00000010
01000000
00100000
00000000
00000000
00010000
00000000
,
00000010
01000000
00100000
00010000
,
00100010
00000000
00000000
00000000
,
00000000
00000000
00000000
00000000
,
00000000
00000000
00000000
00000000
,
00000000
00000000
00000000
00000000
,
11000000
00000100
00010000
10100101
,
00000010
10100000
01000000
00000101
,
00100000
00010000
10100101
00000000
,
10100000
10100000
00100000
00000100
,
00110000
01000000
00000100
00010010
,
00100000
00100010
00100000
10000000
,
01110000
00000000
01000000
00001000
,
00100000
10000000
00100100
00010000
,
00010000
00100100
10000001
10000001
,
00100100
10100101
00100010
00000000
,
00010000
00000000
10001000
00000000
01000000
00000010
01000000
00000001
,
00010100
00110000
00000000
00000000
,
01000000
00000010
11000011
00001000
,
00000010
00000001
00000010
10000000
00000000
11000011
00000000
11000011
,
00000000
01000010
01000001
10000000
,
00000001
00000000
00000010
01000000
00110000
00000000
00000000
00000000
,
00000010
00000010
11000011
00001000
,
00000010
00000001
00000010
10000000
00000000
11000011
00000000
11000011
,
00000000
01000010
01000001
00000000
,
10000000
00000001
00000100
00000000
,
01000010
00000000
00000000
00000000
,
00000000
00000000
00000000
00000000
,
00000000
00000000
00000000
00000000
,
00000000
00000000
00000000
00000000
,
00000000
00000000
00000000
00000000
,
00000000
00000000
00000000
00000000
,
00000000
00000000
00000000
00000000
,
00000000
00000000
00000000
00000000
,
00000000
00000000
00000000
00010000
,
00100100
00100100
00000000
00000000
,
00000101
10100000
00000010
01000000
00000000
00000000
00000000
00000001
,
01000010
01000010
01000010
00000000
,
00010000
00000000
10000001
00000000
10000001
00000000
10000000
00000001
,
01000000
01000000
01000000
01000000
00000100
00000100
00000100
00000100
,
00100100
00100100
00000000
00001000
10000001
00000000
00000000
00000000
,
00100101
10100100
00110100
00110100
,
00000001
10000000
00000000
00000000
,
00000011
11000000
00000001
00000000
,
00000100
00100000
10000101
00000000
,
00110000
10000000
00000100
10000000
,
01000000
00000100
00100000
00000100
,
00100100
00100100
10100100
00100101
,
01000000
01000000
00100000
00000010
,
00000010
00000000
01000010
00000000
01000000
00000010
01000000
00000010
,
00000000
10000000
00000000
00000000
00100000
00000000
00010000
00000000
,
00000100
00000010
00000100
00010000
,
01000000
00100000
01000000
00010000
,
01000000
00000010
00000100
00100000
,
00010000
00010000
11000011
11000011
,
01000000
00000010
11000011
00001000
,
00000010
00000001
00000010
10000000
00000000
11000011
00000000
11000011
,
00000000
01000001
10000000
00000001
,
00000010
00100000
00000100
00100000
,
00000010
00000000
00000000
00000000
;
