#TITLE:[REMIX] Destiny (Only One);
#SUBTITLE:;
#ARTIST:Shinhwa;
#TITLETRANSLIT:;
#SUBTITLETRANSLIT:;
#ARTISTTRANSLIT:;
#GENRE:;
#CREDIT:locuuraa;
#LYRICSPATH:;
#MUSIC:[REMIX] Destiny (Only One).ogg;
#OFFSET:1.800;
#SAMPLESTART:11.580;
#SAMPLELENGTH:12.000;
#SELECTABLE:YES;
#BPMS:0.000=142.490;
#STOPS:;
#KEYSOUNDS:;
#BANNER:[REMIX] Destiny (Only One).png;
#BACKGROUND:[REMIX] Destiny (Only One).png;
#CDTITLE:../CDTitles/4DSS.png;
#BGCHANGES:-14.700=[REMIX] Destiny (Only One).avi=1.000=0=0=1,
229.000=[REMIX] Destiny (Only One).png=1.000=0=0=1,
99999=-nosongbg-=1.000=0=0=0
;
#NOTES:
     ds3ddx-single:
     Remix:
     Challenge:
     5:
     :
00000000
00000000
00000000
00000000
,
00000000
00000000
00000000
00000000
,
00000000
00000000
00000000
00000000
,
00000000
00000000
00000000
00000000
,
00000000
00000000
00000000
00000000
,
00000000
00000000
00000000
00000000
,
00000000
00000000
00000000
00000000
,
00000000
00000000
00000000
00000000
,
00000000
00000000
00000000
00000000
,
00000000
00000000
00000000
00000000
10100101
00000000
00000000
00100100
,
00000000
00000000
00000000
00000000
,
00000010
00000000
00000000
00000100
00000000
00000000
00000001
00000000
00000000
00000000
00000000
00000000
01000000
00000000
00000000
01000000
,
00000000
00000100
00000000
00000000
00000001
00000000
00000000
00000001
,
00000000
00000000
00000000
00000000
,
00000010
00000000
00000000
00000010
00000000
00000000
01000000
00000000
,
00000000
00100000
00000000
00000000
00100000
00000000
00000000
10000000
,
00000000
00000000
01000000
00000000
00000000
01000000
00000000
00000000
,
00000001
00000000
00000000
00000001
00000000
00000000
00000001
00000000
,
00000000
00000010
00000000
00000000
00000110
00000000
00000000
00010000
,
00000000
00000000
00000000
00000000
,
00000100
00000000
00000000
00000100
00000000
00000000
00000100
00000000
,
00000000
10100001
00000000
00000000
01000000
00000000
00000000
01000000
,
00000000
00000000
00000000
00000000
00000000
00000000
00100000
00000000
00000000
00000000
00000000
00100000
00000000
00000000
00000000
00000000
00100000
00000000
00000000
00000000
00000000
00100000
00000000
00000000
,
00000000
00000000
00000000
00000000
00100000
00000000
00000000
00000000
00000000
00000000
00000000
00000000
10000000
00000000
00000000
00000000
00000000
00000000
00000000
00000000
00000000
00000000
00000000
00000000
00000000
00000000
00000000
00000000
00000000
00000000
00000000
00000000
00000000
00000000
00000000
00000000
00100000
00000000
00000000
00000000
00000000
00000000
00000000
00000000
00000000
01000000
00000000
00000000
,
00000000
00000010
00000000
00000000
11000000
00000000
00000000
00000011
,
00000000
00000000
01000010
00000000
00000000
00010000
00000000
00000000
,
00000100
00000000
00000000
01000000
00000000
00000000
01000010
00000000
,
00000000
01000000
00000000
00000000
00000000
00000000
00000000
00000000
,
00000000
00000000
01000000
00000000
00000000
01000000
00000000
00000000
,
01000000
00000000
00000000
01000000
00000000
00000000
01000000
00000000
,
00000000
00000010
00000000
00000000
01000000
00000000
00000000
10000000
,
00000000
00000000
00000010
00000000
00000000
00000001
00000000
00000000
,
00000101
00000000
00000000
00000011
00000000
00000000
11000000
00000000
,
00000000
11000000
00000000
00000000
10100000
00000000
00000000
00100000
,
00000000
00000000
00010100
00000000
00000000
00000101
00000000
00000000
,
10100000
00000000
00000000
00000101
00000000
00000000
10100000
00000000
,
00000000
00000101
00000000
00000000
10100000
00000000
00000000
00000101
,
00000000
00000000
00000010
01000000
00000000
01000000
01000000
01000000
,
00000100
00000000
00000000
10100001
00000000
00000000
00100000
00000000
,
00000000
00000000
10000101
00000000
00000000
00000000
00000000
00000000
00100100
00000000
00000000
00100100
00000000
00000000
10000001
00000000
,
00000000
00000000
00000000
00000000
00000100
00000000
00000000
00100000
00000000
00000000
00100000
00000000
00000000
00000000
00000000
00000000
,
10100101
00000000
00000000
00100100
00000000
00000000
10000011
00000000
,
00000000
01000000
00000000
00000000
00000010
00000000
00000000
01000000
,
00000000
00000000
00000010
00000000
00000000
01000000
00000000
00000000
,
00000100
00000000
00000000
00100000
00000000
00000000
00000100
00000000
,
00000000
00000000
00000000
00100000
00000000
00000000
00000000
00000000
00000000
00000000
00000000
00000000
00100100
00000000
00000000
00000000
00010000
00000000
00000000
00000000
00000000
00000000
00000000
00000000
,
00000000
00000000
00000000
00000000
00100100
00000000
00000000
00100100
00000000
00000000
00100100
00000000
00000000
00000000
00000000
00000000
,
10010000
00000000
00000000
10100000
00000000
00000000
10100000
00000000
,
00000000
00000100
00000000
00000000
00000100
00000000
00000000
00000100
,
00000000
00000000
00100000
00000000
00000000
00100000
00000000
00000000
,
01000000
00000000
00000000
01000000
00000000
00000000
00000100
00000000
00000000
00000000
00000000
00000000
00100000
00000000
00000000
00000000
,
00000000
00000010
00000000
00000000
00010000
00000000
00000000
10000001
,
00000000
00000100
00000000
00000000
,
01000000
00000000
00000000
00000000
,
00000000
00000000
00000000
00000010
00000000
00000000
00000000
00000000
,
00000000
00000000
01000000
00000000
00000000
01000000
00000000
00000000
,
11000000
00000000
00000000
01000000
00000000
00000000
00000010
00000000
,
00000000
00000010
00000000
00000000
00000100
00000000
00000000
00000100
,
00000000
00000000
00010000
00000000
00000000
00010000
00000000
00000000
,
00000100
00000000
00000000
00000010
00000000
00000000
01000000
00000000
,
00000000
00000000
01000010
00000000
00000000
00000000
00000000
00000000
10000000
00000000
00000000
10000000
00000000
00000000
00010000
00000000
,
00000000
10000000
00000000
00000000
00000000
00000000
00000000
00000000
00000000
00000000
00000000
00000000
00000000
00000000
00000000
00000000
,
00000000
00000000
00000000
00000000
,
00000000
00000000
00000000
00000000
00000000
00000000
00000000
00000000
00000100
00000000
00000000
00100000
00000000
00000000
01000000
00000000
,
00000000
00000010
00000000
00000000
00000100
00000000
00000000
00000000
00000000
00000000
00100000
00000000
00000000
00000000
00000000
00000000
,
10000100
00000000
00000000
00000000
,
00000000
00000100
00000000
00000000
00100000
00000000
00000000
10000000
,
00000000
00000000
00000101
00000000
00000000
00010000
00000000
00000000
,
00000101
00000000
00000000
00000011
00000000
00000000
11000000
00000000
,
00000000
11000000
00000000
00000000
10100000
00000000
00000000
00100000
,
00000000
00000000
00010100
00000000
00000000
00000101
00000000
00000000
,
10100000
00000000
00000000
00000101
00000000
00000000
10100000
00000000
,
00000000
00000101
00000000
00000000
10100000
00000000
00000000
00000101
,
00000000
00000000
00000010
01000000
00000000
01000000
01000000
01000000
,
00000100
00000000
00000000
10100001
00000000
00000000
00100000
00000000
,
00000000
00000000
10000101
00000000
00000000
00000000
00000000
00000000
00100100
00000000
00000000
00100100
00000000
00000000
10000001
00000000
,
00000000
00000000
00000000
00000000
00000100
00000000
00000000
00100000
00000000
00000000
00010000
00000000
00000000
00000000
00000000
00000000
,
10100101
00000000
00000000
00100100
00000000
00000000
10000011
00000000
,
00000000
01000000
00000000
00000000
00000010
00000000
00000000
01000000
,
00000000
00000000
00000010
00000000
00000000
01000000
00000000
00000000
,
00000100
00000000
00000000
00100000
00000000
00000000
00000100
00000000
,
00000000
00000000
00000000
00100000
00000000
00000000
00000000
00000000
00000000
00000000
00000000
00000000
00100100
00000000
00000000
00000000
00010000
00000000
00000000
00000000
00000000
00000000
00000000
00000000
,
00000000
00000000
00000000
00000000
00100100
00000000
00000000
00100100
00000000
00000000
00100100
00000000
00000000
00000000
00000000
00000000
,
10010000
00000000
00000000
10100000
00000000
00000000
10100000
00000000
,
00000000
00000100
00000000
00000000
00000100
00000000
00000000
00000100
,
00000000
00000000
00100000
00000000
00000000
00100000
00000000
00000000
,
01000000
00000000
00000000
01000000
00000000
00000000
00000100
00000000
00000000
00000000
00000000
00000000
00100000
00000000
00000000
00000000
,
00000000
00000010
00000000
00000000
00010000
00000000
00000000
10000001
,
00000000
00000100
00000000
00000000
,
01000000
00000000
00000000
00000000
00000000
00000000
00000000
00000000
00000000
00000000
00000000
00000000
00100000
00000000
00000000
00010100
,
00000000
00010000
00000000
00000000
00110000
00000000
00000000
10100000
,
00000000
00000000
00010000
00000000
00000000
00100100
00000000
00000000
,
00000100
00000000
00000000
00000000
00000000
00000000
00000001
00000000
00000000
00000000
00000000
00000000
00000010
00000000
00000000
00100000
,
00000000
00110000
00000000
00000000
00000000
00000000
00000000
00000000
,
00000000
00000000
00000000
00000000
,
01000000
00000000
00000000
00000001
00000000
00000000
00000010
00000000
,
00000000
00000001
00000000
10000000
01000000
00000000
00000000
00000000
,
00000000
00000000
00000000
00000000
00000100
00000000
00000000
00100000
00000000
00000000
10000101
00000000
00000000
00000000
00000000
00000000
,
00010100
00000000
00000000
00000101
00000000
00000000
00010000
00000000
,
00000000
00010000
00000000
00000000
00000101
00000000
00000000
00100000
,
00000000
00000000
00000100
00000000
00000000
00100000
00000000
00000000
,
00000100
00000000
00000000
00000000
,
00000000
00000000
00000000
00000000
,
00000000
00000000
00000000
00000000
,
00000000
00000000
00000000
00000000
,
00000000
00000000
00000000
00000000
,
00000000
00000000
00000000
00000000
,
00000100
00000000
00000000
00000100
00000000
00000000
00100000
00000000
,
00000000
00100000
00000000
00000000
00100000
00000000
00000000
00100000
,
00000000
00000000
00100000
00000000
00000000
01000000
00000000
00000000
,
01000000
00000000
00000000
01000000
00000000
00000000
00000010
00000000
,
00000000
01000000
00000000
00000000
10000011
00000000
00000000
00000000
,
00000000
00000000
00000000
00000000
,
00000100
00000000
00000000
00110000
00000000
00000000
00000101
00000000
,
00000000
00000101
00000000
00000000
00110000
00000000
00000000
00010100
,
00000000
00000000
10100001
00000000
00000000
10000101
00000000
00000000
,
00110000
00000000
00000000
00000000
00000000
00000000
00010100
00000000
00000000
00000000
00000000
00000000
00110000
00000000
00000000
10000100
,
00000000
10000100
00000000
00000000
00100000
00000000
00000000
00100000
,
00000000
00000000
00000100
00000000
00000000
00000100
00000000
00000000
,
00100000
00000000
00000000
00000000
00000000
00000000
10000101
00000000
00000000
00000000
00000000
00000000
00000100
00000000
00000000
00000100
,
00000000
00000000
10000101
00000000
00000000
00000000
00000000
00000000
00100100
00000000
00000000
00010000
00000000
00000000
00010000
00000000
,
00000000
00000000
00000000
00000000
10000001
00000000
00000000
00110100
00000000
00000000
00000000
00000000
00000000
00000000
00000000
00000000
,
00110000
00000000
00000000
10000100
00000000
00000000
00010000
00000000
,
00000000
00001000
00000000
00000000
00000000
00000000
00000000
00000000
,
00000000
00000000
00000000
00000000
00100000
00000000
00000000
00000100
00000000
00000000
00010000
00000000
00000000
00000000
00000000
00000000
,
10100101
00000000
00000000
00100100
00000000
00000000
10000011
00000000
,
00000000
01000000
00000000
00000000
00000010
00000000
00000000
01000000
,
00000000
00000000
00000010
00000000
00000000
01000000
00000000
00000000
,
00000100
00000000
00000000
00100000
00000000
00000000
00000100
00000000
,
00000000
00000000
00000000
00100000
00000000
00000000
00000000
00000000
00000000
00000000
00000000
00000000
00100100
00000000
00000000
00000000
00010000
00000000
00000000
00000000
00000000
00000000
00000000
00000000
,
00000000
00000000
00000000
00000000
00100100
00000000
00000000
00100100
00000000
00000000
00100100
00000000
00000000
00000000
00000000
00000000
,
10000101
00000000
00000000
00000100
00000000
00000000
10100000
00000000
,
00000000
00000100
00000000
00000000
00000001
00000000
00000000
10000000
,
00000000
00000000
00000100
00000000
00000000
00010000
00000000
00000000
,
00100000
00000000
00000000
01000000
00000000
00000000
00000010
00000000
00000000
00000000
00000000
00000000
11000011
00000000
00000000
00000000
,
00000000
00000001
00000000
00000000
10000011
00000000
00000000
00000000
,
00000000
00100000
00000000
00000000
,
00010000
00000000
00000000
00000000
;
