#TITLE:[REMIX] BUMBLE BEE + KICK THE CAN + IN THE NAVY '99;
#SUBTITLE:;
#ARTIST:Bambee & BUS STOP & CAPTAIN JACK;
#TITLETRANSLIT:;
#SUBTITLETRANSLIT:;
#ARTISTTRANSLIT:;
#GENRE:;
#CREDIT:locuuraa;
#LYRICSPATH:;
#MUSIC:[REMIX] BUMBLE BEE + KICK THE CAN + IN THE NAVY '99.ogg;
#OFFSET:0.760;
#SAMPLESTART:11.920;
#SAMPLELENGTH:12.000;
#SELECTABLE:YES;
#BPMS:0.000=138.800;
#STOPS:;
#KEYSOUNDS:;
#BANNER:[REMIX] BUMBLE BEE + KICK THE CAN + IN THE NAVY '99.png;
#BACKGROUND:[REMIX] BUMBLE BEE + KICK THE CAN + IN THE NAVY '99.png;
#CDTITLE:../CDTitles/4DSS.png;
#BGCHANGES:-14.700=[REMIX] BUMBLE BEE + KICK THE CAN + IN THE NAVY '99.avi=1.000=0=0=1,
229.000=[REMIX] BUMBLE BEE + KICK THE CAN + IN THE NAVY '99.png=1.000=0=0=1,
99999=-nosongbg-=1.000=0=0=0
;
#NOTES:
     ds3ddx-single:
     Remix:
     Challenge:
     7:
     :
00000000
00000000
00000000
00000000
,
00000000
00000000
00100100
00000000
,
00000000
00000000
00010000
00000000
,
00000000
00000000
00010000
00000000
,
00000000
00000000
10000000
00000000
,
00000000
00000000
00010100
00000000
,
00000000
00000000
10100000
00000000
,
00000000
00000000
00010000
00000001
,
10000000
00010000
01000010
00000000
,
00000000
00000000
00100000
00100000
,
00000010
01000000
00000010
00000000
00000100
00000000
00000100
00000000
,
01000000
00000010
01000000
00000000
10100000
00000000
00000101
00000000
,
01000010
01000010
11000000
00000011
,
00100100
00100100
01000000
01000000
,
00000100
00100000
00000100
00000000
00000010
00000000
00000010
00000000
,
00100000
00000100
00100000
00000000
11000000
00000000
00000011
00000000
,
00100100
00100100
10100000
00000101
,
01000010
01000010
10000001
00000000
,
00000000
00000000
00110000
00000000
,
00010100
00000000
10100000
00000000
,
00000011
00000000
10000000
10000000
,
10000000
00000000
00000001
00000001
,
00000001
00000000
11000000
00000000
,
00000011
00000000
11000000
00000000
,
00010100
00000000
00000001
00000001
,
00000001
00000000
10000000
10000000
,
10000000
00000000
00100000
00000000
,
00000100
00000000
01000000
01000000
,
01000000
00000000
00000010
00000000
,
01000000
00000000
00000100
00000100
,
00000100
00000000
01000000
00000000
,
00000100
00000000
10000000
00000001
,
10000000
00000000
00100100
00000000
,
00100100
00000000
11000011
00000000
,
00000000
00000000
10100000
00000101
,
00100000
00100000
00100000
00000000
00000011
00000000
11000000
00000000
,
00000100
00000100
00000100
00000000
10000000
00000001
10000000
00000001
,
00100100
00000000
00100100
00000000
10000000
00000001
10000000
00000001
,
01000010
01000010
00110000
00010100
,
00100000
00000100
00100000
00000000
01010000
00000000
00010010
00000000
,
01000000
00000010
01000000
00000000
00010000
10000000
00010000
10000000
,
01100000
00000000
01100000
00000000
00010000
00000001
00010000
00000001
,
00000110
00000110
00100000
01000000
,
00000010
00000000
00000100
00000000
10000000
00000000
00000001
00010000
,
00000000
00001000
00000000
00000000
10000000
00000001
10000000
00000001
,
00100100
00000000
00100100
00000000
10000000
00000001
10000000
00000001
,
01000010
01000010
00000100
00000010
,
01000000
00000000
00100000
00000000
00000001
00000000
10000000
00010000
,
00000000
00001000
00000000
00000000
00010000
10000000
00010000
10000000
,
01100000
00000000
01100000
00000000
00010000
00000001
00010000
00000001
,
00000110
00000110
10000001
00011000
,
00010000
10000000
00000001
00010000
00100100
00000000
00100100
00000000
,
00010000
00000001
10000000
00010000
01000010
00000000
01000010
00000000
,
00100000
00000100
00000100
00100000
01000000
01000000
00000010
00000010
,
00100000
00100000
00000100
00000100
10000001
00000000
00011000
00000000
,
00010000
10000000
00000001
00010000
01100000
00000000
00000110
00000000
,
00010000
00000001
10000000
00010000
00100010
00000000
01000100
00000000
,
01000000
00000100
00000100
01000000
00000100
00000100
00100000
00100000
,
01000010
01000010
00110100
00000000
,
00100000
00000100
00100000
00000100
01100000
00000000
01100000
00000000
,
00000010
01000000
00000010
01000000
00000110
00000000
00000110
00000000
,
00100000
00000100
01000000
00000010
00100000
00100000
00000100
00000100
,
01000000
00000010
00100000
00000000
00010100
00000000
00000000
00000000
,
00100000
00000100
00100000
00000100
01100000
00000000
01100000
00000000
,
00000010
01000000
00000010
01000000
00000110
00000000
00000110
00000000
,
00100000
00000100
01000000
00000010
00100000
00100000
00000010
00000010
,
01000010
10000001
00100000
10100000
,
00000100
00000000
00000101
00000000
00100000
00000100
00100000
00000100
,
01000000
00000010
01000000
00000000
00000100
00000100
00000100
00000100
,
00100000
00100000
00100000
00100000
00000010
01000000
00000010
01000000
,
00000100
00100000
00000100
00100000
01000000
00000010
00100000
00000100
,
00010000
00010000
00010000
00010000
00100000
00000100
01000000
00000010
,
00000001
00000001
00000001
00000000
00100000
00100000
00100000
00100000
,
00000100
00000100
00000100
00000100
01000000
00000010
01000000
00000010
,
01000000
00000100
00100000
00000000
00010000
00000000
10000000
00000000
,
00001000
00000000
00000001
00000000
00100000
00000100
00100000
00000100
,
10000000
10000000
10000000
00000000
00010000
00000000
00000001
00000000
,
00001000
00000000
10000000
00000000
01000000
00000010
01000000
00000010
,
00000001
00000001
00000001
00000000
00010000
00000000
10000000
00000000
,
00001000
00000000
00000001
00000000
00100000
00000100
01000000
00000010
,
10000000
00000001
10000000
00000000
00110100
00000000
00000000
00000000
,
11000011
00000000
11100000
00000000
,
00000111
00000000
00100100
01100000
,
01000010
00000110
00100100
00100100
,
01000010
01000010
10000001
00011000
,
00010000
10000000
00000001
00010000
00100100
00000000
00100100
00000000
,
00010000
00000001
10000000
00010000
01000010
00000000
01000010
00000000
,
00100000
00000100
00000100
00100000
01000000
01000000
00000010
00000010
,
00100000
00100000
00000100
00000100
10000001
00000000
00011000
00000000
,
00010000
10000000
00000001
00010000
01100000
00000000
00000110
00000000
,
00010000
00000001
10000000
00010000
00100010
00000000
01000100
00000000
,
01000000
00000100
00000100
01000000
00000100
00000100
00100000
00100000
,
01000010
10000001
00000000
01000010
,
00000000
00000000
00100100
00000000
01000000
00100000
00000010
00000100
,
10000001
10000001
00000000
00100100
,
00000000
00000000
01000010
00000000
00000010
00000100
00100000
01000000
,
10000001
10000001
00100100
00100100
,
10000000
10000000
00100100
00100100
,
00000001
00000001
01000010
01000010
,
11000000
00000011
00110000
00010100
,
10100000
10100000
01100000
01100000
,
00010000
00010000
00000110
00000110
,
00010000
00010000
00100010
01000100
,
10100000
00000101
01010000
00010010
,
11000000
11000000
00100100
00100100
,
10000000
10000000
00100100
00100100
,
00000001
00000001
01000010
01000010
,
11000000
00000011
00110000
00010100
,
10100000
10100000
01100000
01100000
,
00010000
00010000
00000110
00000110
,
00010000
00010000
00100010
01000100
,
10100000
00000101
01010000
00010010
,
00000000
00000000
00100000
00100000
,
00000100
00000000
00000100
00000000
00100000
00000100
00100000
00000100
,
10000001
00000000
00000100
00000100
,
00100000
00000000
00100000
00000000
01000000
00000010
01000000
00000010
,
00011000
00000000
01000000
01000000
,
00000010
00000000
00000010
00000000
00100000
00000100
00100000
00000100
,
10000001
00000000
00100000
00100000
,
00000010
00000000
00000010
00000000
00100000
00000100
00110000
00000000
,
00000010
01000000
00010010
00000000
00100000
00000100
00100000
01000000
,
00000010
00000010
00110000
00000000
01000000
00000010
11000000
00000000
,
00000100
00100000
00000101
00000000
01000000
00000010
01000000
00100000
,
00000100
00000100
10100000
00000000
00100100
00000000
00100100
00000000
,
10000000
10000000
00100100
00100100
,
00000001
00000001
01000010
01000010
,
11000000
00000011
00110000
00010100
,
10100000
10100000
01100000
01100000
,
00010000
00010000
00000110
00000110
,
00010000
00010000
00100010
01000100
,
10100000
00000101
01010000
00010010
,
11000000
11000000
00100100
00100100
,
10000000
10000000
00100100
00100100
,
00000001
00000001
01000010
01000010
,
11000000
00000011
00110000
00010100
,
10100000
10100000
01100000
01100000
,
00010000
00010000
00000110
00000110
,
00010000
00010000
00100010
01000100
,
10100000
00000101
01010000
00000000
,
00000000
00000000
00100000
00100000
,
00000100
00000000
00000100
00000000
00100000
00000100
00100000
00000100
,
10000001
00000000
00000100
00000100
,
00100000
00000000
00100000
00000000
01000000
00000010
01000000
00000010
,
00011000
00000000
01000000
01000000
,
00000010
00000000
00000010
00000000
00100000
00000100
00100000
00000100
,
10000001
00000000
00100000
00100000
,
10000001
00000100
00000100
00011000
,
00000000
00000000
00000100
00000100
,
00100000
00000000
00100000
00000000
00000100
00100000
00000100
00100000
,
10000001
00000000
00100000
00100000
,
00000100
00000000
00000100
00000000
00000010
01000000
00000010
01000000
,
00011000
00000000
00000010
00000010
,
01000000
00000000
01000000
00000000
00000100
00100000
00000100
00100000
,
10000001
00000000
00000100
00000100
,
10000001
00100000
00100000
00011000
;
