#TITLE:[REMIX] BAD (HEY BOY);
#SUBTITLE:;
#ARTIST:DIVA;
#TITLETRANSLIT:;
#SUBTITLETRANSLIT:;
#ARTISTTRANSLIT:;
#GENRE:;
#CREDIT:locuuraa;
#LYRICSPATH:;
#MUSIC:[REMIX] BAD (HEY BOY).ogg;
#OFFSET:2.820;
#SAMPLESTART:11.340;
#SAMPLELENGTH:12.000;
#SELECTABLE:YES;
#BPMS:0.000=154.490;
#STOPS:;
#KEYSOUNDS:;
#BANNER:[REMIX] BAD (HEY BOY).png;
#BACKGROUND:[REMIX] BAD (HEY BOY).png;
#CDTITLE:../CDTitles/4DSS.png;
#BGCHANGES:-14.700=[REMIX] BAD (HEY BOY).avi=1.000=0=0=1,
229.000=[REMIX] BAD (HEY BOY).png=1.000=0=0=1,
99999=-nosongbg-=1.000=0=0=0
;
#NOTES:
     ds3ddx-single:
     Remix:
     Challenge:
     3:
     :
00000000
00000000
00000000
00000000
,
00000000
00000000
00000000
00000000
,
00000000
00000000
00000000
00000000
,
00000000
00000000
00000000
00000000
,
00000000
00000000
00000000
00000000
,
10000000
00000000
00000000
00000000
,
00000000
00010000
10000000
00000000
,
00000000
00000000
00000000
00000000
00000000
00010000
00000000
10000000
,
00000000
00000000
00000000
00000000
,
00000000
00000000
00000000
00000000
00000000
00000000
00000000
00000001
,
10000000
00000000
00010000
00000000
00000000
00010000
00000000
00000000
,
01000010
00000000
00000000
00000001
,
00000000
01000000
00000000
00000000
00000011
00000000
00000000
00000011
,
00000000
00000000
00000011
00000000
00000000
11000000
00000000
00000000
,
11000000
00000000
00000000
00000011
,
00000000
00000000
00000000
00000000
00000010
00000000
00000000
01000000
,
00000000
00000000
00000000
00000000
00000010
00000000
00000000
00000000
00000000
00000000
01000000
00000000
00000000
01000000
00000000
00000000
,
01000000
00000000
00000000
00000000
00000000
00000000
00100000
00000000
00000000
00000000
00000000
00000000
00110000
00000000
00000000
00010000
,
00000000
00010100
00000000
00000000
00100000
00000000
00000000
00100100
,
00000000
00000000
00100000
00000000
00000000
00100000
00000000
00000000
,
10000100
00000000
00000000
00100000
00000000
00000000
00010000
00000000
00000000
00000000
00000000
00000000
00100001
00000000
00000000
00000100
,
00000000
10000001
00000000
00000000
00000100
00000000
00000000
00100000
,
00000000
00000000
00000000
00000000
00000100
00000000
00000000
00000100
00000000
00000000
00110000
00000000
00000000
00110000
00000000
00000000
,
00000100
00000000
00000000
00100000
00000000
00000000
00000000
00000000
,
00000000
00000000
00010000
00000000
00000000
00010000
00000000
00000000
00000101
00000000
00000000
00000000
00000000
00000000
00100100
00000000
,
00000000
00000000
00000000
00000000
00000000
00000001
00000000
00000000
,
00100001
00000000
00000000
00000000
00000000
00000000
00100001
00000000
00000000
00000000
00000000
00000000
00010000
00000000
00000000
10000000
,
00000000
00000000
00100000
00000000
00000000
00001000
00000000
00000000
00000000
00000000
00000000
00000000
00000000
00000000
10000000
00000000
,
00000000
00000000
00000000
00000000
00000000
00000000
00000000
00000000
00000000
00000000
00110000
00000000
00000000
00100100
00000000
00000000
,
00000001
00000000
00000000
00100000
00000000
00000000
00000000
00000000
,
00000000
00100000
00000000
00000000
00000100
00000000
00000000
00110001
,
00000000
00000000
00001000
00000000
00000000
00000001
00000000
00000000
,
10100100
00000000
00000000
00000001
00000000
00000000
00100100
00000000
00000000
00000000
00000000
00000000
00000001
00000000
00000000
00000000
,
00000000
10000000
00000000
00000000
10000100
00000000
00000000
00100000
,
00000000
00000000
00100001
00000000
00000000
00000100
00000000
00000000
,
01000000
00000000
00000000
00000010
00000000
00000000
01000000
00000000
,
00000000
00010000
00000000
00000000
01000000
00000000
00000000
00100000
,
00000000
00000000
00000100
00000000
00000000
00010000
00000000
00000000
,
00100000
00000000
00000000
00000000
00000000
00000000
00000000
00010000
,
00000001
00000000
00000000
00000000
00000000
00000000
00000000
00000000
00110100
00000000
00000000
00010000
00000000
00000000
00000001
00000000
,
00000000
00000000
00000000
00000000
00000100
00000000
00000000
00000100
00000000
00000000
00000100
00000000
00000000
00000000
00000000
00000000
,
00000001
00000000
00000000
00000100
00000000
00000000
10000000
00000000
00000000
00100000
00000000
00000000
00000001
00000000
00000000
00000100
,
00000000
00000000
00000000
00000000
00100100
00000000
00000000
01000100
,
00000000
00000000
00001000
00000000
00000000
00000010
00000000
00000000
,
01000010
00000000
00000000
10000000
00000000
00000000
01000000
00000000
00000000
00000000
00000000
00000000
00000000
00000000
00000000
00000000
,
00000000
00000000
00000000
00000000
00000010
00000000
00000000
01000000
,
00000000
00000000
00000000
00000000
00000010
00000000
00000000
00000000
00000000
00000000
01000000
00000000
00000000
00000010
00000000
00000000
,
01000000
00000000
00000000
00000001
00000000
00000000
11000010
00000000
,
00000000
00000000
01000001
00000000
00000000
00000010
00000000
00000000
01000010
00000000
00000000
00000000
00000000
00000000
01000010
00000000
,
00000000
11000010
00000000
00000000
,
00100000
00000000
00000000
10000101
00000000
00000000
00000100
00000000
,
00000000
00100000
00000000
00000000
10000000
00000000
00000000
00000001
,
00000000
00000000
00000000
00000000
00000100
00000000
00000000
00100000
00000000
00000000
00010100
00000000
00000000
00100000
00000000
00000000
,
00000000
00000000
00000000
00000000
,
00000000
00000000
00000000
00000000
,
00000000
00000000
00000000
00000000
00000000
00010000
00000000
00000000
,
10100000
00000000
00000000
00000101
00000000
00000000
11000000
00000000
,
00000000
00000011
00000000
00000000
00100000
00000000
00000000
00100000
,
00000000
00000000
00000100
00000000
00000000
00000100
00000000
00000000
,
00000101
00000000
00000000
00000000
00000000
00000000
00001000
00000000
00000000
00000000
00000000
00000000
00000100
00000000
00000000
00000100
,
00000000
00100100
00000000
00000000
10000001
00000000
00000000
00010000
,
00000000
00000000
00000000
00000000
00100000
00000000
00000000
00000100
00000000
00000000
10100000
00000000
00000000
00000000
00000000
00000000
,
00000001
00000000
00000000
00000000
00000000
00000000
10000000
00000000
00000000
00000000
00000000
00000000
01000000
00000000
00000000
00100000
,
00000000
00010000
00000000
00000000
00100000
00000000
00000000
00100000
,
00000000
00000100
00000000
00000000
,
00100000
00000000
00000000
01000000
00000000
00000000
00100000
00000000
,
00010000
00000000
00000000
00000000
00100000
00000000
00000000
00000100
,
00000000
00000010
00010000
00000000
,
00010000
00000000
00000000
00001000
00000000
00000000
00010000
00000000
,
00000001
00000000
00000000
00000000
00000000
00000000
00000000
00000000
00000001
00000000
00000000
10000000
00000000
00000000
00000001
00000000
,
00000000
00000000
00000000
00000000
00000100
00000000
00000000
00100000
00000000
00000000
00000000
00000000
00000000
00000000
00000000
00000000
,
01000000
00000000
00000000
01000000
00000000
00000000
01000000
00000000
00000000
01000000
00000000
00000000
01000000
00000000
00000000
00010000
,
00000000
00000000
00100000
00000000
00000000
00010000
00000000
00000000
00000100
00000000
00000000
00010000
00000000
00000000
00100000
00000000
,
00000000
00010000
00000000
00000000
00000000
00000000
00000000
00100100
00000000
00000000
00000000
00000000
00000000
00100100
00000000
00000000
,
00010000
00000000
00000000
00000000
00000000
00000000
00100000
00000000
00000000
00000000
00000000
00000000
00100000
00000000
00000000
00100000
,
00000000
00000000
00000000
00000000
01000000
00000000
00000000
00000010
,
00000000
00000000
01000000
00000000
00000000
00000010
00000000
00000000
,
11000000
00000000
00000000
00000000
00000000
00000000
01000000
00000000
00000000
01000000
00000000
00000000
00000100
00000000
00000000
00000000
,
00000000
00000100
00000000
00000000
00000100
00000000
00000000
00010000
,
00000000
00000000
00100000
00000000
00000000
00010100
00000000
00000000
,
00100100
00000000
00000000
00100100
00000000
00000000
00100100
00000000
,
00000000
00100100
00000000
00000000
00100000
00000000
00000000
00000010
,
00000000
00000000
01000000
00000000
00000000
00000100
00000000
00000000
,
00100000
00000000
00000000
00000000
,
00000000
00000000
00000000
00000000
,
00000000
00000000
00000000
00000000
,
00000000
00000000
00000000
00000000
,
00000000
00000000
00000000
00000000
,
01000000
00000000
00000000
00000010
00000000
00000000
01000000
00000000
00000000
00000000
00000000
00000000
00000000
00000000
00000000
00000000
,
01000010
00000000
00000000
00000000
00000000
00011000
00000000
00000000
,
00000000
00000000
00000000
00000000
00100000
00000000
00000000
00010100
00000000
00000000
00000000
00000000
00000000
00000000
00100100
00000000
,
00000000
00000000
00000000
00000000
00010000
00000000
00000000
00100100
00000000
00000000
00000000
00000000
00000000
00000000
00000000
00000000
,
01010010
00000000
00000000
00010000
00000000
00000000
00010000
00000000
00000000
01000010
00000000
00000000
00000000
00000000
00000000
01000000
,
00000000
00000000
00100000
00000000
00000000
00100000
00000000
00000000
00001000
00000000
00000000
00000000
00000000
00000000
00100000
00000000
,
00000000
00010000
00000000
00000000
,
00000000
00000000
00000000
00000000
,
00000000
00000000
00000000
00000000
,
00000000
00000000
00000000
00000000
,
00010000
00000000
00000000
00000000
,
00000000
00000000
00000000
00000000
00010000
00000000
00000000
00000100
,
00000000
00000000
00100000
00000000
00000000
00000100
00000000
00000000
,
00000100
00000000
00000000
00000100
00000000
00000000
00000100
00000000
00000000
00000100
00000000
00000000
00000100
00000000
00000000
00000100
,
00000000
00000000
00000100
00000000
00000000
00000100
00000000
00000000
00000100
00000000
00000000
00000100
00000000
00000000
00000100
00000000
,
00000000
00000100
00000000
00000000
00000100
00000000
00000000
00000100
00000000
00000000
00000100
00000000
00000000
00000100
00000000
00000000
,
00010000
00000000
00000000
00000100
00000000
00000000
00100000
00000000
,
00000000
00000100
00000000
00000000
00100000
00000000
00000000
00000100
,
00000000
00000000
00100000
00000000
00000000
00000100
00000000
00000000
,
00000001
00000000
00000000
00000100
00000000
00000000
10000000
00000000
00000000
00100000
00000000
00000000
00000001
00000000
00000000
00000100
,
00000000
00000000
00000000
00000000
00100100
00000000
00000000
01000100
,
00000000
00000000
00000001
00000000
00000000
00000010
00000000
00000000
,
01000010
00000000
00000000
10000000
00000000
00000000
01000000
00000000
00000000
00000000
00000000
00000000
00000000
00000000
00000000
00000000
,
00000000
00000000
00000000
00000000
00000010
00000000
00000000
01000000
,
00000000
00000000
00000000
00000000
00000010
00000000
00000000
00000000
00000000
00000000
01000000
00000000
00000000
00000010
00000000
00000000
,
01000000
00000000
00000000
00000001
00000000
00000000
11000010
00000000
,
00000000
00000000
01000001
00000000
00000000
00000010
00000000
00000000
01000010
00000000
00000000
00000000
00000000
00000000
01000010
00000000
,
00000000
11000010
00000000
00000000
,
00100000
00000000
00000000
10000101
00000000
00000000
00000100
00000000
,
00000000
00000000
00100000
00000000
00000000
00100100
00000000
00000000
00000000
00000000
00000000
00000000
00000000
00000000
00100100
00000000
,
00000000
00000000
00000000
00000000
,
00000101
00000000
00000000
00000000
,
00000000
00100000
00000000
00000000
00100001
00000000
00000000
00100001
,
00000000
00000000
00100001
00000000
00000000
00100001
00000000
00000000
,
00010000
00000000
00000000
00000000
,
00000000
00010000
00000000
00000000
00000000
00000000
00000000
00000000
;
